[Кардиология/«Дни знаний о сердечной недостаточности»]Острые сердечно-сосудистые события во время химиотерапии онкологических больных.Шуйкова К.В.«РНИМУ им.Н.И.Пирогова».[2015, видеоматериал для специалистов здравоохранения, HDTVRip]

 Статистика раздачи 
Размер: 175.62 МБ   |  Зарегистрирован: 15 дек 2015, 02:41   |   .torrent скачан: 0 раз
Сидеров: 4  [ 0 байт/сек ]     Личеров: 0  [ 0 байт/сек ]  
  
Аватара пользователя
Главный редактор
Главный редактор
 
Раздал: 90.01 ТБ
Скачал: 3.78 ТБ
Ратио: 24.248
Сообщения: 291047
Стаж: 9 лет 8 месяцев 16 дней
Откуда: Санкт-Петербург

Острые сердечно-сосудистые события во время химиотерапии онкологических больных.
Страна: Россия
Год выпуска: 2015
Продолжительность: 00:21:29
Перевод: Не требуется
Язык: русский
Русские субтитры: нет
Лектор :Шуйкова К.В., РНИМУ им. Н.И.Пирогова, Москва.
Тема лекции :Острые сердечно-сосудистые события во время химиотерапии онкологических больных. 12 мая 2015 г. , «Дни знаний о сердечной недостаточности». Запись трансляции из ГКБ №24 (Москва).
Качество видео: HDTVRip
Формат видео
: MP4
Видео: AVC, 948 Кбит/сек,1280 Х 720 px,16:9,29 кадров/сек
Аудио: AAC,192 Кбит/сек,2 канала,44,1 КГц
Общее
Полное имя : C:\Users\User\Desktop\Дни знаний о сердечной недостаточности.2015\Острые сердечно-сосудистые события во время химиотерапии онкологических больных.Шуйкова К.В.,РНИМУ им.Н.И.Пирогова. 2015.mp4
Формат : MPEG-4
Профиль формата : Base Media / Version 2
Идентификатор кодека : mp42
Размер файла : 176 Мбайт
Продолжительность : 21 м.
Режим общего битрейта : Переменный
Общий поток : 1143 Кбит/сек
Дата кодирования : UTC 2015-06-09 16:15:48
Дата пометки : UTC 2015-06-09 16:15:48
gsst : 0
gstd : 1289055
gssd : B4A7D6E26HH1434319277174183
Видео
Идентификатор : 1
Формат : AVC
Формат/Информация : Advanced Video Codec
Профиль формата : High@L3.1
Параметр CABAC формата : Да
Параметр ReFrames формата : 1 кадр
Идентификатор кодека : avc1
Идентификатор кодека/Информация : Advanced Video Coding
Продолжительность : 21 м.
Битрейт : 948 Кбит/сек
Максимальный битрейт : 3901 Кбит/сек
Ширина : 1280 пикселей
Высота : 720 пикселей
Соотношение сторон : 16:9
Режим частоты кадров : Постоянный
Частота кадров : 29,970 кадров/сек
Цветовое пространство : YUV
Субдискретизация насыщенности : 4:2:0
Битовая глубина : 8 бит
Тип развёртки : Прогрессивная
Бит/(Пиксели*Кадры) : 0.034
Размер потока : 146 Мбайт (83%)
Дата пометки : UTC 2015-06-09 16:15:54
Аудио
Идентификатор : 2
Формат : AAC
Формат/Информация : Advanced Audio Codec
Профиль формата : LC
Идентификатор кодека : 40
Продолжительность : 21 м.
Вид битрейта : Переменный
Битрейт : 192 Кбит/сек
Максимальный битрейт : 202 Кбит/сек
Каналы : 2 канала
Расположение каналов : Front: L R
Частота : 44,1 КГц
Метод сжатия : С потерями
Размер потока : 29,5 Мбайт (17%)
Язык : English
Дата кодирования : UTC 2015-06-09 16:15:52
Дата пометки : UTC 2015-06-09 16:15:54
Релиз группы
Вам понравилась раздача? Напишите, пожайлуста что-нибудь в этом топике. Это продлит раздаче жизнь. Кнопка "Спасибо" в реальности этого не делает.
Не забывайте говорить Спасибо. Не уходите с раздачи!   
Торрент: Зарегистрирован [15 дек 2015, 02:41]
Статус:
Проверен
 
.torrent скачан: 0 раз
Хэш: 0e75fcad1dec00102456d87316c1a6e34257c18c
Размер: 175.62 МБ (184 155 118 байт)
   Стать Автором раздачи
   
Цитата
  • Похожие торренты
    Ответы
    Просмотры
    Последнее сообщение

Вернуться в Медицина и стоматология

Кто сейчас на конференции

Сейчас эту тему просматривают: нет зарегистрированных пользователей и гости: 1