Нетология | Landing Page: построение эффективных посадочных страниц (2016) PCRec [H.264/720p-LQ]

 Статистика раздачи 
Размер: 9.85 ГБ   |  Зарегистрирован: 24 янв 2018, 16:56   |   .torrent скачан: 28 раз
Сидеров: 518  [ 0 байт/сек ]     Личеров: 42  [ 0 байт/сек ]  
  
Аватара пользователя
 
Раздал: 6.64 ТБ
Скачал: 597.93 ГБ
Ратио: 11.363
Сообщения: 257246
Стаж: 2 года 11 месяцев 1 день

Нетология | Landing Page: построение эффективных посадочных страниц (2016) PCRec [H.264/720p-LQ]

Автор (режиссер): Нетология
Жанр: Онлайн-обучение, вебинары

Описание:
Этот видеокурс подойдет всем, кому интересна тема разработки и создания посадочных страниц или лендингов. После обучения вы сможете самостоятельно оценивать эффективность Landing Page, а также проводить сплит-тестирование.

Продолжительность: 27:00:27
Качество видео: PCRec

Видео: AVC/H.264, 1280x720-1920x1080, ~612-919 Kbps
Аудио: AAC, 2 ch, 251 Kbps
Код: Выделить всё
Общее
Полное имя                               : D:\[Нетология] Построение эффективных посадочных страниц\Блок 1. Анатомия идеального лендинга\Занятие 1.2. Первый экран создание продающего УТП\Занятие 1.2. Первый экран создание продающего УТП.mp4
Формат                                   : MPEG-4
Профиль формата                          : Base Media / Version 2
Идентификатор кодека                     : mp42 (mp42/mp41/isom/avc1)
Размер файла                             : 959 Мбайт
Продолжительность                        : 2 ч. 37 м.
Режим общего битрейта                    : Переменный
Общий поток                              : 851 Кбит/сек
Дата кодирования                         : UTC 2016-06-29 12:38:25
Дата пометки                             : UTC 2016-06-29 12:38:25

Видео
Идентификатор                            : 1
Формат                                   : AVC
Формат/Информация                        : Advanced Video Codec
Профиль формата                          : [url=http://nnm-club.name/mailto:High@L3.2]High@L3.2[/url]
Параметр CABAC формата                   : Да
Параметр RefFrames формата               : 5 кадров
Идентификатор кодека                     : avc1
Идентификатор кодека/Информация          : Advanced Video Coding
Продолжительность                        : 2 ч. 37 м.
Битрейт                                  : 612 Кбит/сек
Ширина                                   : 1280 пикселей
Высота                                   : 720 пикселей
Соотношение сторон                       : 16:9
Режим частоты кадров                     : Постоянный
Частота кадров                           : 15,000 кадров/сек
Цветовое пространство                    : YUV
Субдискретизация насыщенности            : 4:2:0
Битовая глубина                          : 8 бит
Тип развёртки                            : Прогрессивная
Бит/(Пиксели*Кадры)                      : 0.044
Размер потока                            : 690 Мбайт (72%)
Библиотека кодирования                   : x264 core 148 r11 3b70645
Настройки программы                      : cabac=1 / ref=5 / deblock=1:0:0 / analyse=0x3:0x113 / me=umh / subme=8 / psy=1 / psy_rd=1.00:0.00 / mixed_ref=1 / me_range=16 / chroma_me=1 / trellis=1 / 8x8dct=1 / cqm=0 / deadzone=21,11 / fast_pskip=1 / chroma_qp_offset=-2 / threads=22 / lookahead_threads=3 / sliced_threads=0 / nr=0 / decimate=1 / interlaced=0 / bluray_compat=0 / stitchable=1 / constrained_intra=0 / bframes=3 / b_pyramid=2 / b_adapt=2 / b_bias=0 / direct=3 / weightb=1 / open_gop=0 / weightp=2 / keyint=infinite / keyint_min=15 / scenecut=40 / intra_refresh=0 / rc_lookahead=50 / rc=crf / mbtree=1 / crf=20.0 / qcomp=0.60 / qpmin=5 / qpmax=69 / qpstep=4 / vbv_maxrate=2750 / vbv_bufsize=7500 / crf_max=0.0 / nal_hrd=none / filler=0 / ip_ratio=1.40 / aq=1:1.00
Дата кодирования                         : UTC 2016-06-29 12:38:25
Дата пометки                             : UTC 2016-06-29 12:38:25
Цветовой диапазон                        : Limited
Основные цвета                           : BT.709
Характеристики трансфера                 : BT.709
Коэффициенты матрицы                     : BT.709

Аудио
Идентификатор                            : 2
Формат                                   : AAC
Формат/Информация                        : Advanced Audio Codec
Профиль формата                          : LC
Идентификатор кодека                     : 40
Продолжительность                        : 2 ч. 37 м.
Вид битрейта                             : Переменный
Битрейт                                  : 235 Кбит/сек
Каналы                                   : 2 канала
Расположение каналов                     : Front: L R
Частота                                  : 48,0 КГц
Частота кадров                           : 46,875 кадров/сек (1024 SPF)
Метод сжатия                             : С потерями
Размер потока                            : 265 Мбайт (28%)
Дата кодирования                         : UTC 2016-06-29 12:38:25
Дата пометки                             : UTC 2016-06-29 12:38:25

Общее
Полное имя                               : D:\[Нетология] Построение эффективных посадочных страниц\Блок 1. Анатомия идеального лендинга\Занятие 1.1. Введение в интернет-маркетинг лендинг, как генератор клиентов. Типы лендингов\Занятие 1.1..mp4
Формат                                   : MPEG-4
Профиль формата                          : Base Media
Идентификатор кодека                     : isom (isom/iso2/avc1/mp41)
Размер файла                             : 1,29 Гбайт
Продолжительность                        : 2 ч. 37 м.
Режим общего битрейта                    : Переменный
Общий поток                              : 1174 Кбит/сек
Программа кодирования                    : Lavf56.40.101

Видео
Идентификатор                            : 1
Формат                                   : AVC
Формат/Информация                        : Advanced Video Codec
Профиль формата                          : Baseline@L4
Параметр CABAC формата                   : Нет
Параметр RefFrames формата               : 1 кадр
Идентификатор кодека                     : avc1
Идентификатор кодека/Информация          : Advanced Video Coding
Продолжительность                        : 2 ч. 37 м.
Битрейт                                  : 919 Кбит/сек
Ширина                                   : 1920 пикселей
Высота                                   : 1080 пикселей
Соотношение сторон                       : 16:9
Режим частоты кадров                     : Постоянный
Частота кадров                           : 15,000 кадров/сек
Цветовое пространство                    : YUV
Субдискретизация насыщенности            : 4:2:0
Битовая глубина                          : 8 бит
Тип развёртки                            : Прогрессивная
Бит/(Пиксели*Кадры)                      : 0.030
Размер потока                            : 1,01 Гбайт (78%)
Библиотека кодирования                   : x264 core 148 r2643 5c65704
Настройки программы                      : cabac=0 / ref=1 / deblock=1:0:0 / analyse=0x1:0x111 / me=hex / subme=7 / psy=1 / psy_rd=1.00:0.00 / mixed_ref=0 / me_range=16 / chroma_me=1 / trellis=1 / 8x8dct=0 / cqm=0 / deadzone=21,11 / fast_pskip=1 / chroma_qp_offset=-2 / threads=3 / lookahead_threads=1 / sliced_threads=0 / nr=0 / decimate=1 / interlaced=0 / bluray_compat=0 / constrained_intra=0 / bframes=0 / weightp=0 / keyint=250 / keyint_min=25 / scenecut=40 / intra_refresh=0 / rc_lookahead=40 / rc=abr / mbtree=1 / bitrate=919 / ratetol=1.0 / qcomp=0.60 / qpmin=10 / qpmax=51 / qpstep=4 / ip_ratio=1.41 / aq=1:1.00

Аудио
Идентификатор                            : 2
Формат                                   : AAC
Формат/Информация                        : Advanced Audio Codec
Профиль формата                          : LC
Идентификатор кодека                     : 40
Продолжительность                        : 2 ч. 37 м.
Вид битрейта                             : Переменный
Битрейт                                  : 251 Кбит/сек
Максимальный битрейт                     : 256 Кбит/сек
Каналы                                   : 2 канала
Расположение каналов                     : Front: L R
Частота                                  : 48,0 КГц
Частота кадров                           : 46,875 кадров/сек (1024 SPF)
Метод сжатия                             : С потерями
Размер потока                            : 283 Мбайт (21%)
Default                                  : Да
AlternateGroup/String                    : 1
Анатомия идеального лендинга

Лендинг, как генератор клиентов. Основы лидогенерации, воронки конвертации пользователей. Создание продающего уникального предложения. Концепция первого экрана, тело посадочной страницы, призыв к действию. Контактная информация и доверие пользователей. Обзор инструментов создания посадочных страниц.

Определение эффективности лендинга

Коэффициент конверсии. Цена за продажу (CPS), за лид (CPL) или за целевое действие (CPA). Постановка целей и расчет эффективности, настройка аналитики. Построение концепции работы с UTM-метками.

Стратегия оптимизации конверсии посадочной страницы

Сплит-тестирование, как технология оптимизации конверсии. Выбор целей для тестирования, варианты изменений. Дедуктивный и аналитический подход к оптимизации. Выбор лучших вариантов целевой страницы. Настройка сплит-тестов.

Нейромаркетинг и поведенческая психология в интернет-маркетинге

Общая концепция нейромаркетинга, поведенческой психологии и разбор основых когнитивных предубеждений. Управление вниманием и релевантность. Принципы взаимности, серьезности намерений, принцип социальной значимости и личных симпатий, принцип дефицита. Стратегия ценообразования, формирование прайс-листа.

Стратегия MVP

Концепция создания минимального жизнеспособного продукта (MVP). Тестирование гипотез с минимальными затратами. Ускоренное полученное информации и экономия времени на разработку. Построение матрицы приоритетов и развитие продукта.

Скриншоты:



Время раздачи: 24/7 (круглосуточно) (до появления первых 3-5 скачавших)
Не забывайте говорить Спасибо. Не уходите с раздачи!   
Торрент: Зарегистрирован [24 янв 2018, 16:56]
Статус:
Проверен
 
.torrent скачан: 28 раз
Хэш: 47d6ffdc4130a1e4bdd4393b7370d1f1ca8bee87
Размер: 9.85 ГБ (10 580 321 605 байт)
   Стать Автором раздачи
   
Цитата

Вернуться в Бизнес, экономика и финансы

Кто сейчас на конференции

Сейчас эту тему просматривают: нет зарегистрированных пользователей и гости: 1