Последний корабль / The Last Ship [S05] (2018) WEBRip 720p | OMSKBIRD

 Статистика раздачи 
Размер: 9.45 ГБ   |  Зарегистрирован: 13 ноя 2018, 22:38   |   .torrent скачан: 10 раз
Сидеров: 10  [ 0 байт/сек ]     Личеров: 11  [ 0 байт/сек ]  
  
Аватара пользователя
Главный редактор
Главный редактор
 
Раздал: 59.93 ТБ
Скачал: 3.58 ТБ
Ратио: 17.168
Сообщения: 204690
Стаж: 8 лет 4 месяца 29 дней
Откуда: Санкт-Петербург

Информация о фильме
Название: Последний корабль
Оригинальное название: The Last Ship
Год выхода: 2018
Жанр: Фантастика, боевик, триллер, драма
Режиссер: Джек Бендер, Пол Холахан, Серджо Мимика-Геззан
В ролях: Рона Митра, Эрик Дэйн, Адам Болдуин, Трэвис Ван Винкл, Джоко Симс, Чарльз Парнелл, Марисса Нейтлинг, Кристина Элмор, Джон Пайпер-Фергюсон, Кевин Майкл Мартин и другие
О фильме:
«Последний корабль» — постапокалиптический экшен-триллер в лучших традициях телеканала SyFy, рассказывающий о том, как команда военного эсминца пытается найти лекарство от смертельного вируса, угрожающего уничтожить все человечество. Продюсером сериала выступил заслуженный голливудский кинематографист Майкл Бэй, проекты которого отличаются исключительной зрелищностью и эпичностью. Одноименный роман Уильяма Бринкли, положенный в основу сюжета, был восторженно принят критиками и поклонниками историй о мужестве военно-морского командования в экстренных ситуациях.


Страна: США
Продолжительность: ~00:43:00 серия
Перевод: Любительский (многоголосый закадровый) | OMSKBIRD records

Файл
Кодек: AVC/H.264
Качество: WEBRip 720p
Видео: H.264, 1280x720 (16:9), 23,976 fps, ~2950 kbps, 0.134 bit/pixel
Звук:
Аудио rus: AC3, 48 kHz, 2 ch, 192 Kbps | OmskBird
Субтитры: отсутствуют
Реклама: присутствует
Семпл
General
Unique ID : 9595024115648764050054010392057733767 (0x737EF368D436AD43CABFE652FCFE287)
Complete name : G:The.Last.Ship.S05.720p.WEBRip.OmskBirdThe.Last.Ship.S05E01.720p.WEBRip.OmskBird.mkv
Format : Matroska
Format version : Version 4 / Version 2
File size : 979 MiB
Duration : 43 min 29 s
Overall bit rate : 3 147 kb/s
Encoded date : UTC 2018-09-11 09:54:50
Writing application : mkvmerge v25.0.0 ('Prog Noir') 64-bit
Writing library : libebml v1.3.6 + libmatroska v1.4.9
Cover : Yes
Attachments : small_cover.jpg / small_cover_land.jpg / cover.jpg / cover_land.jpg

Video
ID : 1
Format : AVC
Format/Info : Advanced Video Codec
Format profile : Main@L4.1
Format settings : CABAC / 3 Ref Frames
Format settings, CABAC : Yes
Format settings, RefFrames : 3 frames
Codec ID : V_MPEG4/ISO/AVC
Duration : 43 min 29 s
Bit rate : 2 952 kb/s
Width : 1 280 pixels
Height : 720 pixels
Display aspect ratio : 16:9
Frame rate mode : Constant
Frame rate : 23.976 (24000/1001) FPS
Standard : NTSC
Color space : YUV
Chroma subsampling : 4:2:0
Bit depth : 8 bits
Scan type : Progressive
Bits/(Pixel*Frame) : 0.134
Stream size : 918 MiB (94%)
Language : English
Default : Yes
Forced : No
Color range : Limited
Color primaries : BT.709
Transfer characteristics : BT.709
Matrix coefficients : BT.709

Audio
ID : 2
Format : AC-3
Format/Info : Audio Coding 3
Codec ID : A_AC3
Duration : 43 min 29 s
Bit rate mode : Constant
Bit rate : 192 kb/s
Channel(s) : 2 channels
Channel positions : Front: L R
Sampling rate : 48.0 kHz
Frame rate : 31.250 FPS (1536 SPF)
Bit depth : 16 bits
Compression mode : Lossy
Delay relative to video : -63 ms
Stream size : 59.7 MiB (6%)
Title : OmskBird
Language : Russian
Service kind : Complete Main
Default : Yes
Forced : No

: UTC 2017-08-22 11:47:30




Релиз от: OmskBird
Не забывайте говорить Спасибо. Не уходите с раздачи!   
Торрент: Зарегистрирован [13 ноя 2018, 22:38] Для скачивания .torrent
необходима регистрация
Или скачать с помощью
MediaGet
Статус:
Проверен
 
.torrent скачан: 10 раз
Хэш: 31868b14550199688af3327294fdc79cd45f7300
Размер: 9.45 ГБ (10 150 027 351 байт)
   Стать Автором раздачи
   
Цитата
  • Похожие торренты
    Ответы
    Просмотры
    Последнее сообщение

Вернуться в Последний корабль / The Last Ship

Кто сейчас на конференции

Сейчас эту тему просматривают: нет зарегистрированных пользователей и гости: 1