Мистер Мерседес / Mr. Mercedes [S01] (2017) WEB-DLRip 720p | OMSKBIRD

 Статистика раздачи 
Размер: 11.5 ГБ   |  Зарегистрирован: 16 окт 2017, 11:21   |   .torrent скачан: 2 раз
Сидеров: 1  [ 0 байт/сек ]     Личеров: 1  [ 0 байт/сек ]  
  
Аватара пользователя
Главный редактор
Главный редактор
 
Раздал: 90.01 ТБ
Скачал: 3.78 ТБ
Ратио: 24.248
Сообщения: 288697
Стаж: 9 лет 5 месяцев 7 дней
Откуда: Санкт-Петербург

Информация о фильме
Название: Мистер Мерседес
Оригинальное название: Mr. Mercedes
Год выхода: 2017
Жанр: детектив, триллер
Режиссер: Джек Бендер
В ролях: Брендан Глисон, Келли Линч, Гарри Тредэвэй, Мэри-Луиз Паркер, Джаррель Джером, Тьюзди Биби, Лаура Дулинг, Билл Келли, Дэйв МакДональд и др.

О фильме:
Главный герой сериала — полицейский Билл Ходжесс, который недавно вышел в отставку. Одно из преступлений не смогло оставить детектива равнодушным: жестокий и циничный преступник направил угнанный автомобиль в толпу горожан. Ходжесс, у которого много свободного времени, решает самостоятельно найти бандита на «Мерседесе», пока не случилось очередной трагедии...

Сериал «Мистер Мерседес» является экранизацией романа Стивена Кинга.




Страна: США
Продолжительность: ~ 60 мин. серия
Перевод: Любительский (многоголосый закадровый) | OMSKBIRD

Файл
Кодек: MPEG-4 AVC
Качество: WEB-DLRip 720p
Видео: AVC, 1280x720 (16:9), 30.000 fps, ~ 3000 kbps
Звук: Аудио rus: AC-3, 48 KHz, 2 ch, 192 kbps | OMSKBIRD records

Семпл

Присутствует реклама!


General
Unique ID : 251443344766249801245132448948507938522 (0xBD2A3A090690A2C782D05ACE7D048EDA)
Complete name : F:Мои ДокументыВидеоРАЗДАЧИМерседесMr Mercedes S01 WEB-DLRip 720p (OMSKBIRD)Mr Mercedes S01E01 WEB-DLRip 720p (OMSKBIRD).mkv
Format : Matroska
Format version : Version 2
File size : 1.23 GiB
Duration : 57mn 34s
Overall bit rate : 3 057 Kbps
Encoded date : UTC 2017-08-11 09:28:00
Writing application : mkvmerge v4.0.0 ('The Stars were mine') сборка от Jun 6 2010 16:18:42
Writing library : libebml v1.0.0 + libmatroska v1.0.0

Video
ID : 1
Format : AVC
Format/Info : Advanced Video Codec
Format profile : Main@L3.2
Format settings, CABAC : Yes
Format settings, ReFrames : 3 frames
Codec ID : V_MPEG4/ISO/AVC
Duration : 57mn 34s
Bit rate : 2 804 Kbps
Width : 1 280 pixels
Height : 720 pixels
Display aspect ratio : 16:9
Frame rate : 30.000 fps
Standard : PAL
Color space : YUV
Chroma subsampling : 4:2:0
Bit depth : 8 bits
Scan type : Progressive
Bits/(Pixel*Frame) : 0.101
Stream size : 1.13 GiB (92%)
Language : English
Default : Yes
Forced : No
Color primaries : BT.709-5, BT.1361, IEC 61966-2-4, SMPTE RP177
Transfer characteristics : BT.709-5, BT.1361
Matrix coefficients : BT.709-5, BT.1361, IEC 61966-2-4 709, SMPTE RP177

Audio
ID : 2
Format : AC-3
Format/Info : Audio Coding 3
Mode extension : CM (complete main)
Format settings, Endianness : Big
Codec ID : A_AC3
Duration : 57mn 34s
Bit rate mode : Constant
Bit rate : 192 Kbps
Channel(s) : 2 channels
Channel positions : Front: L R
Sampling rate : 48.0 KHz
Bit depth : 16 bits
Compression mode : Lossy
Stream size : 79.1 MiB (6%)
Default : Yes
Forced : No
Перевод • Татьяна Масаковская
Роли озвучивали • Павел Ярощик, Алексей Никитин, Наталья Ланц
Звукорежиссер • Павел Квентов
Постер • Ксения Просветова
Релиз подготовил • Gater

Не забывайте говорить Спасибо. Не уходите с раздачи!   
Торрент: Зарегистрирован [16 окт 2017, 11:21]
Статус:
Проверен
 
.torrent скачан: 2 раз
Хэш: 88ea1f0b08205efcc41cda2575c3778cde42dda3
Размер: 11.5 ГБ (12 346 152 795 байт)
   Стать Автором раздачи
   
Цитата
  • Похожие торренты
    Ответы
    Просмотры
    Последнее сообщение

Вернуться в Мистер Мерседес / Mr. Mercedes

Кто сейчас на конференции

Сейчас эту тему просматривают: нет зарегистрированных пользователей и гости: 1