Мистер Мерседес / Mr. Mercedes [S01] (2017) WEB-DLRip | OMSKBIRD

 Статистика раздачи 
Размер: 7.2 ГБ   |  Зарегистрирован: 16 окт 2017, 11:21   |   .torrent скачан: 1 раз
Сидеров: 5  [ 0 байт/сек ]     Личеров: 0  [ 0 байт/сек ]  
  
Аватара пользователя
Главный редактор
Главный редактор
 
Раздал: 90.01 ТБ
Скачал: 3.78 ТБ
Ратио: 24.248
Сообщения: 288661
Стаж: 9 лет 5 месяцев 6 дней
Откуда: Санкт-Петербург

Информация о фильме
Название: Мистер Мерседес
Оригинальное название: Mr. Mercedes
Год выхода: 2017
Жанр: детектив, триллер
Режиссер: Джек Бендер
В ролях: Брендан Глисон, Келли Линч, Гарри Тредэвэй, Мэри-Луиз Паркер, Джаррель Джером, Тьюзди Биби, Лаура Дулинг, Билл Келли, Дэйв МакДональд и др.

О фильме:
Главный герой сериала — полицейский Билл Ходжесс, который недавно вышел в отставку. Одно из преступлений не смогло оставить детектива равнодушным: жестокий и циничный преступник направил угнанный автомобиль в толпу горожан. Ходжесс, у которого много свободного времени, решает самостоятельно найти бандита на «Мерседесе», пока не случилось очередной трагедии...

Сериал «Мистер Мерседес» является экранизацией романа Стивена Кинга.




Страна: США
Продолжительность: ~ 60 мин. серия
Перевод: Любительский (многоголосый закадровый) | OMSKBIRD

Файл
Кодек: Xvid
Качество: WEB-DLRip
Видео: AVI, 720x400 (16:9), 30.000 fps, ~ 1800 kbps
Звук: Аудио rus: AC-3, 48 KHz, 2 ch, 192 kbps | OMSKBIRD records

Семпл

Присутствует реклама!


General
Complete name : F:Мои ДокументыВидеоРАЗДАЧИМерседесMr Mercedes S01 WEB-DLRip (OMSKBIRD)Mr Mercedes S01E01 WEB-DLRip (OMSKBIRD).avi
Format : AVI
Format/Info : Audio Video Interleave
File size : 797 MiB
Duration : 57mn 34s
Overall bit rate : 1 936 Kbps
Writing application : VirtualDubMod 1.5.10.3 | www.virtualdub-fr.org || (build 2550/release)
Writing library : VirtualDubMod build 2550/release

Video
ID : 0
Format : MPEG-4 Visual
Format profile : Advanced Simple@L5
Format settings, BVOP : 2
Format settings, QPel : No
Format settings, GMC : No warppoints
Format settings, Matrix : Default (H.263)
Codec ID : XVID
Codec ID/Hint : XviD
Duration : 57mn 34s
Bit rate : 1 732 Kbps
Width : 720 pixels
Height : 400 pixels
Display aspect ratio : 16:9
Frame rate : 30.000 fps
Color space : YUV
Chroma subsampling : 4:2:0
Bit depth : 8 bits
Scan type : Progressive
Compression mode : Lossy
Bits/(Pixel*Frame) : 0.200
Stream size : 713 MiB (89%)
Writing library : XviD 1.2.1 (UTC 2008-12-04)

Audio
ID : 1
Format : AC-3
Format/Info : Audio Coding 3
Mode extension : CM (complete main)
Format settings, Endianness : Big
Codec ID : 2000
Duration : 57mn 34s
Bit rate mode : Constant
Bit rate : 192 Kbps
Channel(s) : 2 channels
Channel positions : Front: L R
Sampling rate : 48.0 KHz
Bit depth : 16 bits
Compression mode : Lossy
Stream size : 79.1 MiB (10%)
Alignment : Split accross interleaves
Interleave, duration : 33 ms (1.00 video frame)
Interleave, preload duration : 500 ms
Перевод • Татьяна Масаковская
Роли озвучивали • Павел Ярощик, Алексей Никитин, Наталья Ланц
Звукорежиссер • Павел Квентов
Постер • Ксения Просветова
Релиз подготовил • Gater

Не забывайте говорить Спасибо. Не уходите с раздачи!   
Торрент: Зарегистрирован [16 окт 2017, 11:21]
Статус:
Проверен
 
.torrent скачан: 1 раз
Хэш: 262f501b69038eb9d6b1922d4cfd3ad359857ee4
Размер: 7.2 ГБ (7 728 808 266 байт)
   Стать Автором раздачи
   
Цитата
  • Похожие торренты
    Ответы
    Просмотры
    Последнее сообщение

Вернуться в Мистер Мерседес / Mr. Mercedes

Кто сейчас на конференции

Сейчас эту тему просматривают: нет зарегистрированных пользователей и гости: 1