Мистер Мерседес / Mr. Mercedes [S02] (2018) WEBRip 720p | ColdFilm

 Статистика раздачи 
Размер: 13.34 ГБ   |  Зарегистрирован: 25 окт 2018, 20:36   |   .torrent скачан: 162 раз
Сидеров: 40  [ 0 байт/сек ]     Личеров: 23  [ 0 байт/сек ]  
  
Аватара пользователя
Главный редактор
Главный редактор
 
Раздал: 90.01 ТБ
Скачал: 3.78 ТБ
Ратио: 24.248
Сообщения: 288253
Стаж: 9 лет 5 месяцев 5 дней
Откуда: Санкт-Петербург

Информация о фильме
Название: Мистер Мерседес
Оригинальное название: Mr. Mercedes
Год выпуска: 2018
Жанр: Триллер
Режиссер: Джек Бендер
В ролях: Брендан Глисон, Джаррель Джером, Гарри Тредэвэй, Келли Линч, Эд Андерсон, Роб Нитер, Джастин Люпе

О фильме:
Отставной полицейский Билл Ходжес возвращается к работе, так как ему не дает покоя нераскрытое дело — жестокое убийство восьми человек. Брейди Хартфилд не может забыть пьянящее чувство, когда на угнанном «мерседесе» он врезался в группу ни в чем не повинных людей. Брейди не хочет останавливаться — он уже планирует новое преступление, на этот раз намного более масштабное. Биллу Ходжесу и его команде необходимо опередить его и спасти жизнь уже не десяткам, а сотням людей.


Страна: США
Студия: Sonar Entertainment, Temple Hill Entertainment
Продолжительность: 10 x ~ 01:00:00
Перевод: Любительский многоголосый [ColdFilm]

Файл
Кодек: x264 (AVC)
Качество: WEBRip 720p
Видео: ~3500 Кбит/с, 1280x720, 25.000 fps
Аудио: Русский (AC3, 2 ch, 192 Кбит/с)




General
Unique ID : 197869802149180004421108526228030465930 (0x94DC5673D4311BA398D43F380485A78A)
Complete name :.Mercedes.S02E01.720p.ColdFilm.mkv
Format : Matroska
Format version : Version 2
File size : 1.51 GiB
Duration : 1 h 0 min
Overall bit rate : 3 588 kb/s
Encoded date : UTC 2018-08-23 08:20:00 / UTC 2017-11-20 18:25:40
Writing application : mkvmerge v3.3.0 ('Language') built on Mar 24 2010 14:59:24
Writing library : libebml v0.8.0 + libmatroska v0.9.0 / Lavf54.63.104

Video
ID : 1
Format : AVC
Format/Info : Advanced Video Codec
Format profile : Main@L3.1
Format settings : CABAC / 1 Ref Frames
Format settings, CABAC : Yes
Format settings, ReFrames : 1 frame
Codec ID : V_MPEG4/ISO/AVC
Duration : 1 h 0 min
Bit rate : 3 324 kb/s
Nominal bit rate : 3 500 kb/s
Width : 1 280 pixels
Height : 720 pixels
Display aspect ratio : 16:9
Frame rate mode : Constant
Frame rate : 25.000 FPS
Color space : YUV
Chroma subsampling : 4:2:0
Bit depth : 8 bits
Scan type : Progressive
Bits/(Pixel*Frame) : 0.144
Stream size : 1.40 GiB (93%)
Writing library : x264 core 129
Default : No
Forced : No

Audio
ID : 2
Format : AC-3
Format/Info : Audio Coding 3
Codec ID : A_AC3
Duration : 1 h 0 min
Bit rate mode : Constant
Bit rate : 192 kb/s
Channel(s) : 2 channels
Channel positions : Front: L R
Sampling rate : 48.0 kHz
Frame rate : 31.250 FPS (1536 SPF)
Bit depth : 16 bits
Compression mode : Lossy
Stream size : 82.9 MiB (5%)
Service kind : Complete Main
Default : Yes
Forced : No



Релиз от:
Не забывайте говорить Спасибо. Не уходите с раздачи!   
Торрент: Зарегистрирован [25 окт 2018, 20:36]
Статус:
Проверен
 
.torrent скачан: 162 раз
Хэш: c836e6cc7b7275e842c8988a628b62737d9e41ee
Размер: 13.34 ГБ (14 328 598 815 байт)
   Стать Автором раздачи
   
Цитата
  • Похожие торренты
    Ответы
    Просмотры
    Последнее сообщение

Вернуться в Мистер Мерседес / Mr. Mercedes

Кто сейчас на конференции

Сейчас эту тему просматривают: нет зарегистрированных пользователей и гости: 1