Мистер Мерседес / Mr. Mercedes [S02] (2018) WEBRip 720p | OmskBird

 Статистика раздачи 
Размер: 11.84 ГБ   |  Зарегистрирован: 26 окт 2018, 16:56   |   .torrent скачан: 4 раз
Сидеров: 10  [ 0 байт/сек ]     Личеров: 22  [ 0 байт/сек ]  
  
Аватара пользователя
Я на сайте
 
Раздал: 6.64 ТБ
Скачал: 597.93 ГБ
Ратио: 11.363
Сообщения: 260173
Стаж: 3 года 18 дней

Информация о фильме
Название: Мистер Мерседес
Оригинальное название: Mr. Mercedes
Год выхода: 2018
Жанр: Детектив, триллер
Режиссер: Джек Бендер, Джон Дэвид Коулз, Кевин Хукс
В ролях: Брендан Глисон, Келли Линч, Гарри Тредэвэй, Мэри-Луиз Паркер, Джаррель Джером, Тьюзди Биби, Лаура Дулинг, Билл Келли, Дэйв МакДональд и др.

О фильме:
Отставной полицейский Билл Ходжес возвращается к работе, так как ему не дает покоя нераскрытое дело - жестокое убийство восьми человек… Брейди Хартфилд не может забыть пьянящее чувство, когда на угнанном "мерседесе" он врезался в группу ни в чем не повинных людей… Брейди не хочет останавливаться - он уже планирует новое преступление, на этот раз намного более масштабное. Биллу Ходжесу и его команде необходимо опередить его и спасти жизнь уже не десяткам, а сотням людей…
Сериал «Мистер Мерседес» является экранизацией романа Стивена Кинга.


Страна: США, David E. Kelley Productions,Nomadicfilm,Temple Hill Entertainment
Продолжительность: ~00:59:00 серия
Перевод: Любительский (многоголосый закадровый) OmskBird

Файл
Кодек: MPEG-4 AVC/х.264
Качество: WEBRip 720p
Релиз от: OmskBird
Видео: 1280x720 (16:9), 23.976 fps, ~2908 kbps, 0.132 bit/pixel
Звук:
Аудио rus: AC-3, 2 ch, 48,0 КГц, 192 Кбит/сек - OmskBird
Субтитры: отсутствуют
Реклама: присутствует
Семпл

General
Unique ID : 56875075844476942691416245015670253019 (0x2AC9BDBD0B025860D90BDE9BEA3965DB)
Complete name : G:Mr.Mercedes.S02.720p.WEBRip.OmskBirdMr.Mercedes.S02E01.720p.WEBRip.OmskBird.mkv
Format : Matroska
Format version : Version 4 / Version 2
File size : 1.31 GiB
Duration : 1 h 0 min
Overall bit rate : 3 102 kb/s
Encoded date : UTC 2018-08-25 04:49:49
Writing application : mkvmerge v25.0.0 ('Prog Noir') 64-bit
Writing library : libebml v1.3.6 + libmatroska v1.4.9
Cover : Yes
Attachments : small_cover.jpg / small_cover_land.jpg / cover.jpg / cover_land.jpg

Video
ID : 1
Format : AVC
Format/Info : Advanced Video Codec
Format profile : Main@L4.1
Format settings : CABAC / 3 Ref Frames
Format settings, CABAC : Yes
Format settings, RefFrames : 3 frames
Codec ID : V_MPEG4/ISO/AVC
Duration : 1 h 0 min
Bit rate : 2 908 kb/s
Width : 1 280 pixels
Height : 720 pixels
Display aspect ratio : 16:9
Frame rate mode : Constant
Frame rate : 23.976 (24000/1001) FPS
Standard : NTSC
Color space : YUV
Chroma subsampling : 4:2:0
Bit depth : 8 bits
Scan type : Progressive
Bits/(Pixel*Frame) : 0.132
Stream size : 1.23 GiB (94%)
Language : English
Default : Yes
Forced : No
Color range : Limited
Color primaries : BT.709
Transfer characteristics : BT.709
Matrix coefficients : BT.709

Audio
ID : 2
Format : AC-3
Format/Info : Audio Coding 3
Codec ID : A_AC3
Duration : 1 h 0 min
Bit rate mode : Constant
Bit rate : 192 kb/s
Channel(s) : 2 channels
Channel positions : Front: L R
Sampling rate : 48.0 kHz
Frame rate : 31.250 FPS (1536 SPF)
Bit depth : 16 bits
Compression mode : Lossy
Stream size : 83.2 MiB (6%)
Title : OmskBird
Language : Russian
Service kind : Complete Main
Default : Yes
Forced : No


Внимание! Раздача ведётся путём добавления новых серий; при каждом добавлении создётся новый торрент. Чтобы начать докачку новой серии, пользователям необходимо сделать следующее:
Остановить скачивание.
Удалить старый торрент у себя из клиента (старые серии удалять не надо).
Скачать новый торрент и запустить его у себя в клиенте вместо старого, при этом указать клиенту путь в старую папку куда и должно происходить скачивание новых серий.
Ваш клиент при этом должен произвести хеширование (проверку) старой папки (если не производит сам - помогите ему сделать это), и будет докачивать только те серии которых у вас ещё нет. Старые серии при этом не удаляются, а продолжают раздаваться!
Eсли вы уже удалили старые серии, то предотвратить повторную закачку старых серий можно, отжав галочку в соответсвующих местах при запуске нового торрента. По возможности, желательно не удалять старые серии как можно дольше чтобы релизёр не столько продолжал раздавать старые серии, а смог сконцентрироваться на новых.

Релиз от: OmskBird
Не забывайте говорить Спасибо. Не уходите с раздачи!   
Торрент: Зарегистрирован [26 окт 2018, 16:56]
Статус:
Проверен
 
.torrent скачан: 4 раз
Хэш: 5bdb862cc92d0e023c721bd31bc0ec8945389f8c
Размер: 11.84 ГБ (12 715 331 983 байт)
   Стать Автором раздачи
   
Цитата
  • Похожие торренты
    Ответы
    Просмотры
    Последнее сообщение

Вернуться в Мистер Мерседес / Mr. Mercedes

Кто сейчас на конференции

Сейчас эту тему просматривают: нет зарегистрированных пользователей и гости: 1