Банши / Banshee [S03] (2015) BDRip 720p | NewStudio, Amedia

 Статистика раздачи 
Размер: 25.86 ГБ   |  Зарегистрирован: 05 май 2017, 11:27   |   .torrent скачан: 16 раз
Сидеров: 4  [ 0 байт/сек ]     Личеров: 0  [ 0 байт/сек ]  
  
Аватара пользователя
Главный редактор
Главный редактор
 
Раздал: 78.18 ТБ
Скачал: 3.73 ТБ
Ратио: 21.403
Сообщения: 209757
Стаж: 8 лет 7 месяцев 21 день
Откуда: Санкт-Петербург
СообщениеДобавлено: 05 май 2017, 11:27


Название: Банши
Оригинальное название: Banshee
Год выхода третьего сезона: 2015
Страна: США
Студия: Your Face Goes Here Entertainment, Cinemax
Продолжительность: 10 x ~ 50:00
Жанр: боевик, триллер, драма, криминал, детектив

Режиссер: Оле Кристиан Мадсен, Грег Яйтанс, Лони Перистер, ...
В ролях: Энтони Старр, Ивана Миличевич, Хун Ли, Рас Блэквелл, Триесте Келли Данн, Лили Симмонс, Фрэнки Фэйзон, Мэтт Сервитто, Деметриус Гросс, Ульрих Томсен, Райанн Шэйн, Бен Кросс, Энтони Руйвивар, Мэттью Ройч, ...

Перевод:
- Профессиональный (многоголосый, закадровый) NewStudio
- Профессиональный (многоголосый, закадровый) Amedia
- Субтитры Amedia

О фильме: Лукас Худ — отбывший наказание в тюрьме вор, который некогда предал своих подельников. После отсидки он приезжает в небольшой городок в Пенсильвании, носящий название Банши, где обманом получает пост местного шерифа. Но это не значит, что он забыл своё криминальное прошлое и теперь служит закону. Гангстеры, которых он когда-то предал, всё еще помнят про него и стремятся отомстить. Назревает жесткое противостояние между новоявленным шерифом и его бывшими приятелями. Спокойствие местного населения нарушается, а убийство следует за убийством, когда шериф начинает «наводить порядок» во вверенном его заботам городке…



Кодек: x264
Качество: BDRip 720p
Видео: 1280x720, ~5000 kbps, 23,976 fps
Аудио #1: AC-3, 6 ch, 384 kbps (Rus) - MVO NewStudio
Аудио #2: AC-3, 2 ch, 224 kbps (Rus) - MVO Amedia
Аудио #3: DTS, 6 ch, 1509 kbps (Eng)
Субтитры: Русские, Английские

Общее
Уникальный идентификатор : 224291366559007664006243042910163658771 (0xA8BCF2274FDBA066B5CFE6700FD36813)
Полное имя : Banshee E01 S03 2015 BDRip 720p NewStudio Amedia.mkv
Формат : Matroska
Версия формата : Version 2
Размер файла : 2,40 Гбайт
Продолжительность : 50 м.
Общий поток : 6812 Кбит/сек
Дата кодирования : UTC 2017-05-02 09:57:18
Программа кодирования : mkvmerge v4.0.0 ('The Stars were mine') сборка от Jun 6 2010 16:18:42
Библиотека кодирования : libebml v1.0.0 + libmatroska v1.0.0

Видео
Идентификатор : 1
Формат : AVC
Формат/Информация : Advanced Video Codec
Профиль формата : High@L4.1
Параметр CABAC формата : Да
Параметр ReFrames формата : 5 кадров
Идентификатор кодека : V_MPEG4/ISO/AVC
Продолжительность : 50 м.
Битрейт : 4694 Кбит/сек
Ширина : 1280 пикселей
Высота : 720 пикселей
Соотношение сторон : 16:9
Режим частоты кадров : Постоянный
Частота кадров : 23,976 кадра/сек
Цветовое пространство : YUV
Субдискретизация насыщенности : 4:2:0
Битовая глубина : 8 бит
Тип развёртки : Прогрессивная
Бит/(Пиксели*Кадры) : 0.212
Размер потока : 1,60 Гбайт (67%)
Библиотека кодирования : x264 core 148 r2665 a01e339
Настройки программы : cabac=1 / ref=5 / deblock=1:0:0 / analyse=0x3:0x133 / me=umh / subme=7 / psy=1 / psy_rd=1.00:0.00 / mixed_ref=1 / me_range=16 / chroma_me=1 / trellis=1 / 8x8dct=1 / cqm=0 / deadzone=21,11 / fast_pskip=0 / chroma_qp_offset=-2 / threads=18 / lookahead_threads=3 / sliced_threads=0 / nr=0 / decimate=1 / interlaced=0 / bluray_compat=0 / constrained_intra=0 / bframes=3 / b_pyramid=2 / b_adapt=1 / b_bias=0 / direct=1 / weightb=1 / open_gop=0 / weightp=2 / keyint=250 / keyint_min=23 / scenecut=40 / intra_refresh=0 / rc_lookahead=40 / rc=2pass / mbtree=1 / bitrate=4694 / ratetol=1.0 / qcomp=0.60 / qpmin=0 / qpmax=69 / qpstep=4 / cplxblur=20.0 / qblur=0.5 / ip_ratio=1.40 / aq=1:1.00
Язык : English
Default : Нет
Forced : Нет

Аудио #1
Идентификатор : 2
Формат : AC-3
Формат/Информация : Audio Coding 3
Расширение режима : CM (complete main)
Параметр Endianness формата : Big
Идентификатор кодека : A_AC3
Продолжительность : 50 м.
Вид битрейта : Постоянный
Битрейт : 384 Кбит/сек
Каналы : 6 каналов
Расположение каналов : Front: L C R, Side: L R, LFE
Частота : 48,0 КГц
Частота кадров : 31,250 кадров/сек (1536 spf)
Метод сжатия : С потерями
Размер потока : 138 Мбайт (6%)
Заголовок : NewStudio
Язык : Russian
Default : Нет
Forced : Нет

Аудио #2
Идентификатор : 3
Формат : AC-3
Формат/Информация : Audio Coding 3
Расширение режима : CM (complete main)
Параметр Endianness формата : Big
Идентификатор кодека : A_AC3
Продолжительность : 50 м.
Вид битрейта : Постоянный
Битрейт : 224 Кбит/сек
Каналы : 2 канала
Расположение каналов : Front: L R
Частота : 48,0 КГц
Частота кадров : 31,250 кадров/сек (1536 spf)
Метод сжатия : С потерями
Размер потока : 80,7 Мбайт (3%)
Заголовок : Amedia
Язык : Russian
Default : Нет
Forced : Нет

Аудио #3
Идентификатор : 4
Формат : DTS
Формат/Информация : Digital Theater Systems
Режим : 16
Параметр Endianness формата : Big
Идентификатор кодека : A_DTS
Продолжительность : 50 м.
Вид битрейта : Постоянный
Битрейт : 1509 Кбит/сек
Каналы : 6 каналов
Расположение каналов : Front: L C R, Side: L R, LFE
Частота : 48,0 КГц
Частота кадров : 93,750 кадра/сек (512 spf)
Битовая глубина : 24 бит
Метод сжатия : С потерями
Задержка видео : 11 мс.
Размер потока : 544 Мбайт (22%)
Язык : English
Default : Нет
Forced : Нет

Текст #1
Идентификатор : 5
Формат : UTF-8
Идентификатор кодека : S_TEXT/UTF8
Идентификатор кодека/Информация : UTF-8 Plain Text
Заголовок : Amedia
Язык : Russian
Default : Нет
Forced : Нет

Текст #2
Идентификатор : 6
Формат : UTF-8
Идентификатор кодека : S_TEXT/UTF8
Идентификатор кодека/Информация : UTF-8 Plain Text
Язык : English
Default : Нет
Forced : Нет


Не забывайте говорить Спасибо. Не уходите с раздачи!   
Торрент: Зарегистрирован [05 май 2017, 11:27]
Статус:
Проверен
 
.torrent скачан: 16 раз
Хэш: 52cf44a5bd3379705901a5e336f5cc22431a0ce2
Размер: 25.86 ГБ (27 767 603 838 байт)
   Стать Автором раздачи
   
Цитата
  • Похожие торренты
    Ответы
    Просмотры
    Последнее сообщение

Вернуться в Банши / Banshee

Кто сейчас на конференции

Сейчас эту тему просматривают: нет зарегистрированных пользователей и гости: 1