Банши / Banshee [S01-04] (2013-2016) BDRip 1080p, HDTVRip 1080p | HEVC | Amedia

 Статистика раздачи 
Размер: 41.82 ГБ   |  Зарегистрирован: 23 май 2016, 12:54   |   .torrent скачан: 1530 раз
Сидеров: 23  [ 0 байт/сек ]     Личеров: 15  [ 0 байт/сек ]  
  
Аватара пользователя
Главный редактор
Главный редактор
 
Раздал: 79.89 ТБ
Скачал: 3.74 ТБ
Ратио: 21.771
Сообщения: 210685
Стаж: 8 лет 8 месяцев
Откуда: Санкт-Петербург

Банши / Banshee

Страна: США
Производство: Cinemax, Your Face Goes Here Entertainment
Год выпуска: 2013–2016
Жанр: боевик, триллер, драма, криминал, детектив
Сезоны: 1-4
Серии: 1-38 (из 38)
Продолжительность: 38х ~00:50:00

Режиссеры: Оле Кристиан Мадсен, Грег Яйтанс, Лони Перистер
Авторы сценария: Дэвид Шиклер, Джонатан Троппер, Адам Таргум

В ролях: Энтони Старр, Ивана Миличевич, Ульрих Томсен, Хун Ли, Фрэнки Фэйзон, Лили Симмонс, Триесте Келли Данн, Рас Блэквелл

Описание: Лукас Худ — отбывший наказание в тюрьме вор, который некогда предал своих подельников. После отсидки он приезжает в небольшой городок в Пенсильвании, носящий название Банши, где обманом получает пост местного шерифа. Но это не значит, что он забыл своё криминальное прошлое и теперь служит закону. Гангстеры, которых он когда-то предал, всё еще помнят про него и стремятся отомстить. Назревает жесткое противостояние между новоявленным шерифом и его бывшими приятелями. Спокойствие местного населения нарушается, а убийство следует за убийством, когда шериф начинает «наводить порядок» во вверенном его заботам городке...



Субтитры: нет
Перевод: Профессиональный (многоголосый, закадровый) | Amedia


Качество: BDRip HEVC 1080p (сезоны: 1-2) | HDTVRip HEVC 1080p (сезоны: 3-4)
Формат: МР4
Видео кодек: HEVC
Аудио кодек: ААС
Видео: 1920x1080 (16:9), 23.976 fps,MPEG-4 HEVC ~3000 kbps
Аудио: 48.0 kHz, Advanced Audio Codec LC, 2/0 (L,R) ch, ~192 kbps avg

Дата премьеры (мир): 11 января 2013

Релиз от: Medivh (gmnet)

*H.265/HEVC (High Efficiency Video Coding) - это новый стандарт кодирования видео.
*Рипы в фомате HEVC, в настоящее время не поддерживается большинством аппаратных проигрывателей.
*Для корректного воспроизведения может потребоваться обновление ПО.
*Стандарт H.265/HEVC является логическим продолжением стандарта H.264/AVC (Advanced Video Coding), и характеризуется более эффективными алгоритмами сжатия, а также поддержкой высокого разрешения вплоть до 8K UHD (8192x4320). Первая версия стандарта H.265 была опубликована в начале 2013 года.

Общее
Полное имя : 1x01 - Пилотный эпизод.mp4
Формат : MPEG-4
Профиль формата : Base Media
Идентификатор кодека : isom
Размер файла : 1,30 Гбайт
Продолжительность : 59 м.
Режим общего битрейта : Переменный
Общий поток : 3125 Кбит/сек
Программа кодирования : Lavf55.37.101

Видео
Идентификатор : 1
Формат : HEVC
Формат/Информация : High Efficiency Video Coding
Профиль формата : Main@L4.0
Идентификатор кодека : hev1
Идентификатор кодека/Информация : High Efficiency Video Coding
Продолжительность : 59 м.
Битрейт : 2954 Кбит/сек
Ширина : 1920 пикселей
Высота : 1080 пикселей
Соотношение сторон : 16:9
Режим частоты кадров : Постоянный
Частота кадров : 23,976 кадра/сек
Цветовое пространство : YUV
Субдискретизация насыщенности : 4:2:0
Битовая глубина : 8 бит
Тип развёртки : Прогрессивная
Бит/(Пиксели*Кадры) : 0.059
Размер потока : 1,23 Гбайт (95%)
Язык : English

Аудио
Идентификатор : 2
Формат : AAC
Формат/Информация : Advanced Audio Codec
Профиль формата : LC
Идентификатор кодека : 40
Продолжительность : 59 м.
Вид битрейта : Переменный
Битрейт : 165 Кбит/сек
Максимальный битрейт : 192 Кбит/сек
Каналы : 2 канала
Расположение каналов : Front: L R
Частота : 48,0 КГц
Метод сжатия : С потерями
Размер потока : 70,5 Мбайт (5%)
Язык : Russian

Не забывайте говорить Спасибо. Не уходите с раздачи!   
Торрент: Зарегистрирован [23 май 2016, 12:54]
Статус:
Проверен
 
.torrent скачан: 1530 раз
Хэш: a5b061f1e7756b14c1dfbf98d2fa33abbaf3034a
Размер: 41.82 ГБ (44 905 230 989 байт)
   Стать Автором раздачи
   
Цитата
  • Похожие торренты
    Ответы
    Просмотры
    Последнее сообщение

Вернуться в Банши / Banshee

Кто сейчас на конференции

Сейчас эту тему просматривают: нет зарегистрированных пользователей и гости: 1