Эш против Зловещих мертвецов / Ash vs Evil Dead [S03] (2018) WEBRip | GostFilm

 Статистика раздачи 
Размер: 3.22 ГБ   |  Зарегистрирован: 29 апр 2018, 21:15   |   .torrent скачан: 1 раз
Сидеров: 1  [ 0 байт/сек ]     Личеров: 0  [ 0 байт/сек ]  
  
Аватара пользователя
Главный редактор
Главный редактор
Я на сайте
 
Раздал: 90.01 ТБ
Скачал: 3.78 ТБ
Ратио: 24.248
Сообщения: 274200
Стаж: 9 лет 1 месяц 18 дней
Откуда: Санкт-Петербург

Информация о фильме
Название: Эш против Зловещих мертвецов
Оригинальное название: Ash vs Evil Dead
Год выпуска: 2018
Жанр: Ужасы, боевик, комедия
Режиссер: Майкл Херст, Рик Джейкобсон, Сэм Рэйми
В ролях: Брюс Кэмпбелл, Джилл Мари Джонс, Дэна ДеЛоренцо, Люси Лоулесс, Рэй Сантьяго, Мими Роджерс, Хемки Мадера, Фил Пелетон, Дэмиен Гарви

О фильме:
30 лет он избегал ответственности за свои поступки, упорно старался не взрослеть и не особо стремился вновь встретиться с ожившими мертвецами. Но, совершив ошибку, Эш узнает, что проказа кандарийских демонов угрожает распространиться по всей планете и ему снова приходится вступить в схватку с полчищами мертвой нечисти. Реки крови, горы трупов и, конечно, искрометный черный юмор – отличный подарок всем любителям ужасов, комедий, крови, треша и угара.


Страна: США
Студия: Starz, Renaissance Pictures
Продолжительность: 10 x ~00:40:00
Перевод: Любительский многоголосый [GostFilm]

Файл
Кодек: Xvid
Качество: WEBRip
Видео: ~1469 Кбит/с, 720x400, 23.976 fps
Аудио: Русский (mp3, 2 ch, 320 Кбит/с)



General
Complete name : E:Ash.vs.Evil.Dead.S03.400p.GostFilmAsh.vs.Evil.Dead.S03E01.400p.GostFilm.avi
Format : AVI
Format/Info : Audio Video Interleave
File size : 360 MiB
Duration : 27 min 59 s
Overall bit rate : 1 799 kb/s
Writing application : Lavf57.83.100
Writing library : VirtualDub build 35491/release

Video
ID : 0
Format : MPEG-4 Visual
Format profile : Advanced Simple@L5
Format settings, BVOP : 2
Format settings, QPel : No
Format settings, GMC : No warppoints
Format settings, Matrix : Default (H.263)
Codec ID : XVID
Codec ID/Hint : XviD
Duration : 27 min 59 s
Bit rate : 1 469 kb/s
Width : 720 pixels
Height : 400 pixels
Display aspect ratio : 16:9
Frame rate : 25.000 FPS
Color space : YUV
Chroma subsampling : 4:2:0
Bit depth : 8 bits
Scan type : Progressive
Compression mode : Lossy
Bits/(Pixel*Frame) : 0.204
Stream size : 294 MiB (82%)
Writing library : XviD 67

Audio
ID : 1
Format : MPEG Audio
Format version : Version 1
Format profile : Layer 3
Mode : Joint stereo
Codec ID : 55
Codec ID/Hint : MP3
Duration : 27 min 59 s
Bit rate mode : Constant
Bit rate : 320 kb/s
Channel(s) : 2 channels
Sampling rate : 48.0 kHz
Compression mode : Lossy
Stream size : 64.1 MiB (18%)
Alignment : Split accross interleaves
Interleave, duration : 40 ms (1.00 video frame)
Interleave, preload duratio : 500 ms
Writing library : LAME3.99.5ЄЄЄЄЄЄЄЄЄЄ


Релиз от:
Не забывайте говорить Спасибо. Не уходите с раздачи!   
Торрент: Зарегистрирован [29 апр 2018, 21:15]
Статус:
Проверен
 
.torrent скачан: 1 раз
Хэш: 3fa0e41a9a57b745664bc2a5a0f14ce9295fbd94
Размер: 3.22 ГБ (3 453 700 838 байт)
   Стать Автором раздачи
   
Цитата

Вернуться в Эш против Зловещих мертвецов / Ash vs Evil Dead

Кто сейчас на конференции

Сейчас эту тему просматривают: нет зарегистрированных пользователей и гости: 1