Открытие ведьм / A Discovery of Witches (2018) HDTVRip (cезон 1, серии 1 из 8) NewStudio (обновляемая) [AD]

 Статистика раздачи 
Размер: 550.1 МБ   |  Зарегистрирован: 23 сен 2018, 14:03   |   .torrent скачан: 1 раз
Сидеров: 7  [ 0 байт/сек ]     Личеров: 2  [ 0 байт/сек ]  
  
Аватара пользователя
 
Раздал: 256.39 ГБ
Скачал: 432.89 ГБ
Ратио: 0.672
Сообщения: 213353
Стаж: 8 лет 8 месяцев 28 дней

Открытие ведьм / A Discovery of Witches (2018) HDTVRip (cезон 1, серии 1 из 8) NewStudio.TV (обновляемая)

Производство: США, Великобритания
Жанр: фэнтези, драма, мелодрама

Режиссер: Сара Уокер, Элис Тротон, Сара Уолкер
Актеры: Эдвард Блюмель, Грегг Чиллин, Мэттью Гуд, Тереза Палмер, Оуэн Тил, Малин Буска, Тревор Ив, Аийша Харт, Джулиан Костов, Нила Аалия

Описание:
История любви на фоне оксфордской академической жизни. Историк Диана Бишоп специализируется на старинных рукописях и однажды обнаруживает в архивах некий манускрипт, связанный с магией. С этих пор жизнь Дианы превращается в кошмар, зато судьба сводит её с обаятельным генетиком Мэттью Клермонтом. Пикантность ситуации заключается в том, что Диана — потомственная ведьма, а Мэттью — вампир.

https://www.imdb.com/title/tt2177461/?ref_=plg_rt_1
Возраст: 16+ (зрителям, достигшим 16 лет)
Дата мировой премьеры: 14 сентября 2018
Дата премьеры в России: 14 сентября 2018

Релиз от: NewStudio

Продолжительность: ~00:45:00 серия
Качество видео: HDTVRip
Перевод: Многоголосый закадровый, профессиональный - NewStudio
Реклама: присутствуют аудио и видео вставки рекламы

Видео: Xvid, 720x368, ~1419 Kbps
Аудио 1: MP3, 2 ch, 128 Kbps - русский, многоголосый закадровый
Аудио 2: MP3, 2 ch, 128 Kbps - английский
Код: Выделить всё
Общее
Полное имя                               : J:\сериалы\A.Discovery.Of.Witches.s01\A.Discovery.Of.Witches.s01e01.HDTVRip.NewStudio.TV.avi
Формат                                   : AVI
Формат/Информация                        : Audio Video Interleave
Размер файла                             : 550 Мбайт
Продолжительность                        : 45 м.
Общий поток                              : 1690 Кбит/сек
Программа кодирования                    : VirtualDubMod 1.5.10.2 (build 2540/release)
Библиотека кодирования                   : VirtualDubMod build 2540/release

Видео
Идентификатор                            : 0
Формат                                   : MPEG-4 Visual
Профиль формата                          : Advanced Simple@L5
Параметр BVOP формата                    : 2
Параметр QPel формата                    : Да
Параметр GMC формата                     : Без точки перехода
Параметр матрицы формата                 : Default (MPEG)
Режим смешивания                         : Сжатый битовый поток
Идентификатор кодека                     : XVID
Идентификатор кодека/Подсказка           : XviD
Продолжительность                        : 45 м.
Битрейт                                  : 1419 Кбит/сек
Ширина                                   : 720 пикселей
Высота                                   : 368 пикселей
Соотношение сторон                       : 1,957
Частота кадров                           : 25,000 кадров/сек
Цветовое пространство                    : YUV
Субдискретизация насыщенности            : 4:2:0
Битовая глубина                          : 8 бит
Тип развёртки                            : Прогрессивная
Метод сжатия                             : С потерями
Бит/(Пиксели*Кадры)                      : 0.214
Размер потока                            : 462 Мбайт (84%)
Библиотека кодирования                   : XviD 67

Аудио #1
Идентификатор                            : 1
Формат                                   : MPEG Audio
Версия формата                           : Version 1
Профиль формата                          : Layer 3
Режим                                    : Joint stereo
Расширение режима                        : MS Stereo
Идентификатор кодека                     : 55
Идентификатор кодека/Подсказка           : MP3
Продолжительность                        : 45 м.
Вид битрейта                             : Постоянный
Битрейт                                  : 128 Кбит/сек
Каналы                                   : 2 канала
Частота                                  : 48,0 КГц
Метод сжатия                             : С потерями
Размер потока                            : 41,7 Мбайт (8%)
Выравнивание                             : Соединение по промежуткам
Продолжительность промежутка             : 40  мс. (1,00 видеокадр)
Время предзагрузки промежутка            : 504  мс.

Аудио #2
Идентификатор                            : 2
Формат                                   : MPEG Audio
Версия формата                           : Version 1
Профиль формата                          : Layer 3
Режим                                    : Joint stereo
Расширение режима                        : MS Stereo
Идентификатор кодека                     : 55
Идентификатор кодека/Подсказка           : MP3
Продолжительность                        : 45 м.
Вид битрейта                             : Постоянный
Битрейт                                  : 128 Кбит/сек
Каналы                                   : 2 канала
Частота                                  : 48,0 КГц
Метод сжатия                             : С потерями
Размер потока                            : 41,7 Мбайт (8%)
Выравнивание                             : Соединение по промежуткам
Продолжительность промежутка             : 40  мс. (1,00 видеокадр)
Время предзагрузки промежутка            : 504  мс.
Библиотека кодирования                   : LAME3.99r
Настройки программы                      : -m j -V 4 -q 2 -lowpass 17 -b 128
Внимание! Раздача ведётся путём добавления новых серий; при каждом добавлении создаётся новый торрент.
Чтобы начать докачку новой серии, пользователям необходимо сделать следующее:
1. Остановить скачивание;
2. Удалить старый торрент у себя из клиента (старые серии удалять не надо);
3. Скачать новый торрент и запустить его у себя в клиенте вместо старого, при этом указать клиенту путь в старую папку куда и должно происходить скачивание новых серий. Ваш клиент при этом должен произвести хеширование (проверку) старой папки и будет докачивать только те серии, которых у вас ещё нет. Старые серии при этом не удаляются, а продолжают раздаваться! Eсли вы уже удалили старые серии, то предотвратить повторную закачку старых серий можно, отжав галочку в соответствующих местах при запуске нового торрента.

Скриншоты:



Время раздачи: Пн-Пт с 18:00 до 22:30, Вс с 09:00 до 23:00 (до появления первых 3-5 скачавших)
Не забывайте говорить Спасибо. Не уходите с раздачи!   
Торрент: Зарегистрирован [23 сен 2018, 14:03]
Статус:
Проверен
 
.torrent скачан: 1 раз
Хэш: bae327d2f0f481ed44bf096fded4d2914a9ba3eb
Размер: 550.1 МБ (576 821 248 байт)
   Стать Автором раздачи
   
Цитата
  • Похожие торренты
    Ответы
    Просмотры
    Последнее сообщение

Вернуться в Открытие ведьм / A Discovery of Witches

Кто сейчас на конференции

Сейчас эту тему просматривают: нет зарегистрированных пользователей и гости: 1