Форс-мажоры / Костюмы в законе / Suits (2017) WEB-DL [H.264/1080p-LQ] (сезон 7, серии 1-16 из 16) NewStudio

 Статистика раздачи 
Размер: 29.47 ГБ   |  Зарегистрирован: 13 июл 2017, 22:56   |   .torrent скачан: 1149 раз
Сидеров: 6  [ 0 байт/сек ]     Личеров: 1  [ 0 байт/сек ]  
  
Аватара пользователя
 
Раздал: 256.39 ГБ
Скачал: 432.89 ГБ
Ратио: 0.672
Сообщения: 190123
Стаж: 8 лет 8 дней

Форс-мажоры / Костюмы в законе / Suits (2017) WEB-DL [H.264/1080p-LQ] (сезон 7, серии 1-16 из 16)

«Two lawyers. One degree»
Производство: США / Hypnotic, Universal Cable Productions, Dutch Oven
Жанр: драма, комедия

Режиссер: Антон Кроппер, Майкл Смит, Кевин Брэй
Актеры: Гэбриел Махт, Патрик Джей Адамс, Рик Хоффман, Меган Маркл, Сара Рафферти, Джина Торрес, Аманда Шулл, Уенделл Пирс, Алома Райт, Карли Поуп и др.

Описание:
Продолжение полюбившейся зрителям истории о парочке Майкла Росса и Харви Спектра.
Главные герои сериала уже испытали на себе все издержки своей профессии. Они выпутались из самых сложных ситуаций, пережили много событий и даже поплатились за свои поступки, но...

http://www.imdb.com/title/tt1632701/?ref_=plg_rt_1
Возраст: 16+ (зрителям, достигшим 16 лет)

Продолжительность: ~00:45:00 серия
Качество видео: WEB-DL
Перевод: Двухголосый закадровый, профессиональный - NewStudio
Субтитры: английские

Видео: H.264/AVC, 1920x1080 (16:9), ~5213 kbps
Аудио 1: AC-3, 48,0 kHz, 6 ch, 384 kbps — русский, двухголосый закадровый
Аудио 2: AC-3, 48,0 kHz, 6 ch, 384 kbps — английский
Код: Выделить всё
Общее
Уникальный идентификатор                 : 230519431270672531031084598939540821224 (0xAD6C6D73924A778A92445682A6B094E8)
Полное имя                               : D:\Форс-мажоры (сезон 7) Suits (2017) WEB-DL 1080p - NewStudio\Suits.S07E01.WEBDL1080p.Rus.Eng.DV.NewStudio.mkv
Формат                                   : Matroska
Версия формата                           : Version 4 / Version 2
Размер файла                             : 1,89 Гбайт
Продолжительность                        : 45 м. 16 с.
Общий поток                              : 5984 Кбит/сек
Название фильма                          : Suits.S07E01.WEBDL1080p.Rus.Eng.DV.NewStudio / NNM-Club
Дата кодирования                         : UTC 2017-07-13 19:42:11
Программа кодирования                    : mkvmerge v8.2.0 ('World of Adventure') 64bit
Библиотека кодирования                   : libebml v1.3.1 + libmatroska v1.4.2
Обложка                                  : Yes
Attachments                              : Cover

Видео
Идентификатор                            : 1
Формат                                   : AVC
Формат/Информация                        : Advanced Video Codec
Профиль формата                          : High@L4
Параметр CABAC формата                   : Да
Параметр RefFrames формата               : 4 кадра
Идентификатор кодека                     : V_MPEG4/ISO/AVC
Продолжительность                        : 45 м. 16 с.
Битрейт                                  : 5213 Кбит/сек
Ширина                                   : 1920 пикселей
Высота                                   : 1080 пикселей
Соотношение сторон                       : 16:9
Режим частоты кадров                     : Постоянный
Частота кадров                           : 23,976 (23976/1000) кадра/сек
Цветовое пространство                    : YUV
Субдискретизация насыщенности            : 4:2:0
Битовая глубина                          : 8 бит
Тип развёртки                            : Прогрессивная
Бит/(Пиксели*Кадры)                      : 0.105
Размер потока                            : 1,65 Гбайт (87%)
Язык                                     : English
Default                                  : Да
Forced                                   : Нет
Цветовой диапазон                        : Limited
Основные цвета                           : BT.709
Характеристики трансфера                 : BT.709
Коэффициенты матрицы                     : BT.709

Аудио #1
Идентификатор                            : 2
Формат                                   : AC-3
Формат/Информация                        : Audio Coding 3
Параметр Endianness формата              : Big
Идентификатор кодека                     : A_AC3
Продолжительность                        : 45 м. 16 с.
Вид битрейта                             : Постоянный
Битрейт                                  : 384 Кбит/сек
Каналы                                   : 6 каналов
Расположение каналов                     : Front: L C R, Side: L R, LFE
Частота                                  : 48,0 КГц
Частота кадров                           : 31,250 кадров/сек (1536 SPF)
Битовая глубина                          : 16 бит
Метод сжатия                             : С потерями
Задержка видео                           : -42 мс.
Размер потока                            : 124 Мбайт (6%)
Заголовок                                : NewStudio
Язык                                     : Russian
ServiceKind/String                       : Complete Main
Default                                  : Да
Forced                                   : Нет

Аудио #2
Идентификатор                            : 3
Формат                                   : AC-3
Формат/Информация                        : Audio Coding 3
Параметр Endianness формата              : Big
Идентификатор кодека                     : A_AC3
Продолжительность                        : 45 м. 16 с.
Вид битрейта                             : Постоянный
Битрейт                                  : 384 Кбит/сек
Каналы                                   : 6 каналов
Расположение каналов                     : Front: L C R, Side: L R, LFE
Частота                                  : 48,0 КГц
Частота кадров                           : 31,250 кадров/сек (1536 SPF)
Битовая глубина                          : 16 бит
Метод сжатия                             : С потерями
Задержка видео                           : -42 мс.
Размер потока                            : 124 Мбайт (6%)
Язык                                     : English
ServiceKind/String                       : Complete Main
Default                                  : Нет
Forced                                   : Нет

Текст
Идентификатор                            : 4
Формат                                   : UTF-8
Идентификатор кодека                     : S_TEXT/UTF8
Идентификатор кодека/Информация          : UTF-8 Plain Text
Продолжительность                        : 43 м. 18 с.
Битрейт                                  : 121 бит/сек
ElementCount                             : 988
Размер потока                            : 38,5 Кбайт (0%)
Язык                                     : English
Default                                  : Нет
Forced                                   : Нет
01. Skin in the Game / Комбо
02. The Statue / Статуя
03. Mudmare / Грязевой кошмар
04. Divide and Conquer / Разделяй и властвуй
05. Brooklyn Housing / Чего стоит твоё слово
06. Home to Roost / Как аукнется так и откликнется
07. Full Disclosure / Полная откровенность
08. 100 / 100
09. Shame / Позор
10. Donna / Донна
11. Hard Truths / Горькая правда
12. Bad Man / Негодяй
13. Inevitable / Неизбежное
14. Pulling the Goalie / Убрать вратаря
15. Tiny Violin / Игра
16. Good-Beye / Прощай
Автор перевода: Ptyza

Скриншоты:




Время раздачи: 24/7 (до появления первых 3-5 скачавших)
Не забывайте говорить Спасибо. Не уходите с раздачи!   
Торрент: Зарегистрирован [13 июл 2017, 22:56]
Статус:
Проверен
 
.torrent скачан: 1149 раз
Хэш: 3357636bd222329722475f07bcb5954a710c92f4
Размер: 29.47 ГБ (31 642 901 279 байт)
   Стать Автором раздачи
   
Цитата

Вернуться в Форс-мажоры / Suits

Кто сейчас на конференции

Сейчас эту тему просматривают: нет зарегистрированных пользователей и гости: 1