Последний корабль / The Last Ship (2017) WEBRip (сезон 4, серии 1-10 из 10) BaibaKo

 Статистика раздачи 
Размер: 4.89 ГБ   |  Зарегистрирован: 22 авг 2017, 15:48   |   .torrent скачан: 0 раз
Сидеров: 2  [ 0 байт/сек ]     Личеров: 1  [ 0 байт/сек ]  
  
Аватара пользователя
 
Раздал: 256.39 ГБ
Скачал: 432.89 ГБ
Ратио: 0.672
Сообщения: 188907
Стаж: 7 лет 8 месяцев 13 дней

Последний корабль / The Last Ship (2017) WEBRip (сезон 4, серии 1-10 из 10)
«No cure. No country. No surrender»

Производство: США
Жанр: фантастика, боевик, триллер, драма

Режиссер: Пол Холахан, Джек Бендер, Питер Уэллер
Актеры: Рона Митра, Эрик Дэйн, Адам Болдуин, Михаэлла МакМанус, Трэвис Ван Винкл, Чарльз Парнелл, Кристина Элмор, Джоко Симс, Джон Пайпер-Фергюсон и др.

Описание:
Когда глобальная пандемия уничтожает восемьдесят процентов населения планеты, на плечи экипажа одинокого эсминца ложится задача по спасению человечества от вымирания.

http://www.imdb.com/title/tt2402207/?ref_=plg_rt_1
Возраст: 16+ (зрителям, достигшим 16 лет)

Продолжительность: ~00:43:00 серия
Качество видео: WEBRip
Перевод: Многоголосый закадровый, профессиональный - Baibako
Субтитры: Отсутствуют

Видео: Xvid, 720x400 (16:9), ~1393 Kbps
Аудио #1: MP3, 2 ch, 128 Kbps - русский, многоголосый закадровый
Аудио #2: MP3, 2 ch, 128 Kbps - английский
Код: Выделить всё
Общее
Полное имя                               : F:\Последний корабль (2017)\Серия 01.avi
Формат                                   : AVI
Формат/Информация                        : Audio Video Interleave
Размер файла                             : 501 Мбайт
Продолжительность                        : 42 м. 5 с.
Общий поток                              : 1663 Кбит/сек
Программа кодирования                    : VirtualDubMod 1.5.10.3 | [url=http://www.virtualdub-fr.org]www.virtualdub-fr.org[/url] || (build 2550/release)
Библиотека кодирования                   : VirtualDubMod build 2550/release

Видео
Идентификатор                            : 0
Формат                                   : MPEG-4 Visual
Профиль формата                          : Advanced Simple@L5
Параметр BVOP формата                    : 1
Параметр QPel формата                    : Нет
Параметр GMC формата                     : Без точки перехода
Параметр матрицы формата                 : Default (MPEG)
Идентификатор кодека                     : XVID
Идентификатор кодека/Подсказка           : XviD
Продолжительность                        : 42 м. 5 с.
Битрейт                                  : 1393 Кбит/сек
Ширина                                   : 720 пикселей
Высота                                   : 400 пикселей
Соотношение сторон                       : 16:9
Частота кадров                           : 23,976 (24000/1001) кадра/сек
Цветовое пространство                    : YUV
Субдискретизация насыщенности            : 4:2:0
Битовая глубина                          : 8 бит
Тип развёртки                            : Прогрессивная
Метод сжатия                             : С потерями
Бит/(Пиксели*Кадры)                      : 0.202
Размер потока                            : 419 Мбайт (84%)
Библиотека кодирования                   : XviD 73

Аудио #1
Идентификатор                            : 1
Формат                                   : MPEG Audio
Версия формата                           : Version 1
Профиль формата                          : Layer 3
Режим                                    : Joint stereo
Расширение режима                        : MS Stereo
Идентификатор кодека                     : 55
Идентификатор кодека/Подсказка           : MP3
Продолжительность                        : 42 м. 5 с.
Вид битрейта                             : Постоянный
Битрейт                                  : 128 Кбит/сек
Каналы                                   : 2 канала
Частота                                  : 48,0 КГц
Метод сжатия                             : С потерями
Размер потока                            : 38,5 Мбайт (8%)
Выравнивание                             : Соединение по промежуткам
Продолжительность промежутка             : 42  мс. (1,00 видеокадр)
Время предзагрузки промежутка            : 504  мс.

Аудио #2
Идентификатор                            : 2
Формат                                   : MPEG Audio
Версия формата                           : Version 1
Профиль формата                          : Layer 3
Режим                                    : Joint stereo
Расширение режима                        : MS Stereo
Идентификатор кодека                     : 55
Идентификатор кодека/Подсказка           : MP3
Продолжительность                        : 42 м. 5 с.
Вид битрейта                             : Постоянный
Битрейт                                  : 128 Кбит/сек
Каналы                                   : 2 канала
Частота                                  : 48,0 КГц
Метод сжатия                             : С потерями
Размер потока                            : 38,5 Мбайт (8%)
Выравнивание                             : Соединение по промежуткам
Продолжительность промежутка             : 42  мс. (1,00 видеокадр)
Время предзагрузки промежутка            : 504  мс.

Скриншоты:




Время раздачи: 24/7 (круглосуточно) (до появления первых 3-5 скачавших)
Не забывайте говорить Спасибо. Не уходите с раздачи!   
Торрент: Зарегистрирован [22 авг 2017, 15:48] Для скачивания .torrent
необходима регистрация
Или скачать с помощью
MediaGet
Статус:
Проверен
 
.torrent скачан: 0 раз
Хэш: 0dd1e170e35fd65a661e28249f7bc7bb0b8a9217
Размер: 4.89 ГБ (5 249 056 768 байт)
   Стать Автором раздачи
   
Цитата

Вернуться в Последний корабль / The Last Ship

Кто сейчас на конференции

Сейчас эту тему просматривают: нет зарегистрированных пользователей и гости: 1