Форс-мажоры / Костюмы в законе / Suits (2017) WEB-DLRip (сезон 7, серии 1-16 из 16) NewStudio

 Статистика раздачи 
Размер: 8.75 ГБ   |  Зарегистрирован: 13 июл 2017, 23:02   |   .torrent скачан: 1166 раз
Сидеров: 5  [ 0 байт/сек ]     Личеров: 2  [ 0 байт/сек ]  
  
Аватара пользователя
 
Раздал: 256.39 ГБ
Скачал: 432.89 ГБ
Ратио: 0.672
Сообщения: 190123
Стаж: 8 лет 8 дней

Форс-мажоры / Костюмы в законе / Suits (2017) WEB-DLRip (сезон 7, серии 1-16 из 16)

«Two lawyers. One degree»
Производство: США / Hypnotic, Universal Cable Productions, Dutch Oven
Жанр: драма, комедия

Режиссер: Антон Кроппер, Майкл Смит, Кевин Брэй
Актеры: Гэбриел Махт, Патрик Джей Адамс, Рик Хоффман, Меган Маркл, Сара Рафферти, Джина Торрес, Аманда Шулл, Уенделл Пирс, Алома Райт, Карли Поуп и др.

Описание:
Продолжение полюбившейся зрителям истории о парочке Майкла Росса и Харви Спектра.
Главные герои сериала уже испытали на себе все издержки своей профессии. Они выпутались из самых сложных ситуаций, пережили много событий и даже поплатились за свои поступки, но...

http://www.imdb.com/title/tt1632701/?ref_=plg_rt_1
Возраст: 16+ (зрителям, достигшим 16 лет)

Продолжительность: ~00:45:00 серия
Качество видео: WEB-DLRip
Перевод: Двухголосый закадровый, профессиональный - NewStudio

Видео: XviD, 720x400 (16:9), ~1513 kbps
Аудио 1: MP3, 48,0 kHz, 2 ch, 128 kbps — русский, двухголосый закадровый
Аудио 2: MP3, 48,0 kHz, 2 ch, 128 kbps — английский
Код: Выделить всё
Общее
Полное имя                               : D:\Форс-мажоры (сезон 7) Suits (2017) WEB-DLRip - NewStudio\Suits.S07E01.WEBDLRip.Rus.Eng.DV.NewStudio.avi
Формат                                   : AVI
Формат/Информация                        : Audio Video Interleave
Размер файла                             : 577 Мбайт
Продолжительность                        : 45 м. 16 с.
Общий поток                              : 1783 Кбит/сек
Название фильма                          : Suits.S07E01.WEBDLRip.Rus.Eng.DV.NewStudio / NNM-Club
Программа кодирования                    : VirtualDubModRus 1.5.10.2 (build 2542/release)
Библиотека кодирования                   : VirtualDubMod build 2542/release

Видео
Идентификатор                            : 0
Формат                                   : MPEG-4 Visual
Профиль формата                          : Advanced Simple@L5
Параметр BVOP формата                    : 2
Параметр QPel формата                    : Нет
Параметр GMC формата                     : Без точки перехода
Параметр матрицы формата                 : Default (H.263)
Идентификатор кодека                     : XVID
Идентификатор кодека/Подсказка           : XviD
Продолжительность                        : 45 м. 16 с.
Битрейт                                  : 1513 Кбит/сек
Ширина                                   : 720 пикселей
Высота                                   : 400 пикселей
Соотношение сторон                       : 16:9
Частота кадров                           : 23,976 (24000/1001) кадра/сек
Цветовое пространство                    : YUV
Субдискретизация насыщенности            : 4:2:0
Битовая глубина                          : 8 бит
Тип развёртки                            : Прогрессивная
Метод сжатия                             : С потерями
Бит/(Пиксели*Кадры)                      : 0.219
Размер потока                            : 490 Мбайт (85%)
Заголовок                                : Rip by DriverV / NNM-Club
Библиотека кодирования                   : XviD 64

Аудио #1
Идентификатор                            : 1
Формат                                   : MPEG Audio
Версия формата                           : Version 1
Профиль формата                          : Layer 3
Режим                                    : Joint stereo
Расширение режима                        : MS Stereo
Идентификатор кодека                     : 55
Идентификатор кодека/Подсказка           : MP3
Продолжительность                        : 45 м. 16 с.
Вид битрейта                             : Постоянный
Битрейт                                  : 128 Кбит/сек
Каналы                                   : 2 канала
Частота                                  : 48,0 КГц
Метод сжатия                             : С потерями
Размер потока                            : 41,4 Мбайт (7%)
Выравнивание                             : Соединение по промежуткам
Продолжительность промежутка             : 42  мс. (1,00 видеокадр)
Время предзагрузки промежутка            : 504  мс.

Аудио #2
Идентификатор                            : 2
Формат                                   : MPEG Audio
Версия формата                           : Version 1
Профиль формата                          : Layer 3
Режим                                    : Joint stereo
Расширение режима                        : MS Stereo
Идентификатор кодека                     : 55
Идентификатор кодека/Подсказка           : MP3
Продолжительность                        : 45 м. 16 с.
Вид битрейта                             : Постоянный
Битрейт                                  : 128 Кбит/сек
Каналы                                   : 2 канала
Частота                                  : 48,0 КГц
Метод сжатия                             : С потерями
Размер потока                            : 41,4 Мбайт (7%)
Выравнивание                             : Соединение по промежуткам
Продолжительность промежутка             : 42  мс. (1,00 видеокадр)
Время предзагрузки промежутка            : 504  мс.
01. Skin in the Game / Комбо
02. The Statue / Статуя
03. Mudmare / Грязевой кошмар
04. Divide and Conquer / Разделяй и властвуй
05. Brooklyn Housing / Чего стоит твоё слово
06. Home to Roost / Как аукнется так и откликнется
07. Full Disclosure / Полная откровенность
08. 100 / 100
09. Shame / Позор
10. Donna / Донна
11. Hard Truths / Горькая правда
12. Bad Man / Негодяй
13. Inevitable / Неизбежное
14. Pulling the Goalie / Убрать вратаря
15. Tiny Violin / Игра
16. Good-Beye / Прощай
Автор перевода: Ptyza
Рип: DriverV

Скриншоты:




Время раздачи: 24/7 (до появления первых 3-5 скачавших)
Не забывайте говорить Спасибо. Не уходите с раздачи!   
Торрент: Зарегистрирован [13 июл 2017, 23:02]
Статус:
Проверен
 
.torrent скачан: 1166 раз
Хэш: eed9ecb2491edbb8bde77cf1d1a9480790eaf5ea
Размер: 8.75 ГБ (9 398 620 160 байт)
   Стать Автором раздачи
   
Цитата

Вернуться в Форс-мажоры / Suits

Кто сейчас на конференции

Сейчас эту тему просматривают: нет зарегистрированных пользователей и гости: 1