Банши / Banshee (2014) HDTVRip (Сезон-2 / Серии 1-10 из 10) Amedia

 Статистика раздачи 
Размер: 6.72 ГБ   |  Зарегистрирован: 12 янв 2014, 12:57   |   .torrent скачан: 0 раз
Сидеров: 2  [ 0 байт/сек ]     Личеров: 0  [ 0 байт/сек ]  
  
Аватара пользователя
 
Раздал: 256.39 ГБ
Скачал: 432.89 ГБ
Ратио: 0.672
Сообщения: 189363
Стаж: 7 лет 11 месяцев 13 дней

Банши / Banshee (2014) HDTVRip (Сезон-2 / Серии 1-10 из 10) Amedia

Страна: США
Год выпуска: 2014
Жанр: боевик, триллер, драма, криминал

Перевод: Многоголосый закадровый, профессиональный - Amedia
Озвучка: студия "Пифагор" по заказу Amedia

http://www.imdb.com/title/tt2017109/?ref_=plg_rt_1

Режиссер: Мигель Сапочник, Грег Яйтанс
Актеры: Триесте Келли Данн, Мэтт Сервитто, Энтони Старр, Рас Блэквелл, Ивана Миличевич, Райанн Шэйн, Фрэнки Фэйзон, Деметриус Гросс, Мэттью Ройч, Хун Ли, Ульрих Томсен, Кристофер Козорт, Дерек Сесил, Стив Култер, Джозеф Майсснер и др.

Описание фильма:
Городок Банши пережил много бед, но настоящие проблемы только начинаются. Кай Проктер приютил племянницу, взорвал строящийся отель и еще не знает, что убил юного мэра Банши. Кэри спасла Лукаса, но семья от нее отвернулась. Ее отец, украинский гангстер, раненный в грудь, скрылся от преследователей и уже готовит план мести. Главный герой потерял много крови, но снова выжил. Он готов приступить к исполнению обязанностей шерифа, но теперь его полномочия ограничены, а ФБР пристально следит за каждым его шагом. А главное - теперь ему всерьез грозит разоблачение.

ВОЗРАСТНОЕ ОГРАНИЧЕНИЕ: 18+


Продолжительность: ~00:49:00 серия
Качество видео: HDTVRip

Видеокодек: XviD
Формат: AVI
Битрейт видео: ~1504 kb/s
Размер кадра: 720х400 (16:9)
Аудио Rus: (MPEG Layer 3, 48,0 kHz, 2 ch, 192 kb/s) - многоголосый закадровый
Аудио Eng: (MPEG Layer 3, 48,0 kHz, 2 ch, 192 kb/s) - оригинал


Общее
Полное имя : D:\Банши (Сезон 2) Banshee (2014) HDTVRip - Amedia\Banshee.S02E01.HDTV.XviD.Rus.Eng..avi
Формат : AVI
Формат/Информация : Audio Video Interleave
Размер файла : 676 Мбайт
Продолжительность : 49 м.
Общий поток : 1902 Кбит/сек
Программа кодирования : VirtualDubModRus 1.5.10.2 (build 2542/release)
Библиотека кодирования : VirtualDubMod build 2542/release

Видео
Идентификатор : 0
Формат : MPEG-4 Visual
Профиль формата : Advanced Simple@L5
Параметр BVOP формата : 2
Параметр QPel формата : Нет
Параметр GMC формата : Без точки перехода
Параметр матрицы формата : Default (H.263)
Идентификатор кодека : XVID
Идентификатор кодека/Подсказка : XviD
Продолжительность : 49 м.
Битрейт : 1504 Кбит/сек
Ширина : 720 пикселей
Высота : 400 пикселей
Соотношение сторон : 16:9
Частота кадров : 23,976 кадра/сек
Цветовое пространство : YUV
Субдискретизация насыщенности : 4:2:0
Битовая глубина : 8 бит
Тип развёртки : Прогрессивная
Метод сжатия : С потерями
Бит/(Пиксели*Кадры) : 0.218
Размер потока : 534 Мбайт (79%)
Библиотека кодирования : XviD 64

Аудио #1
Идентификатор : 1
Формат : MPEG Audio
Версия формата : Version 1
Профиль формата : Layer 3
Режим : Joint stereo
Идентификатор кодека : 55
Идентификатор кодека/Подсказка : MP3
Продолжительность : 49 м.
Вид битрейта : Постоянный
Битрейт : 192 Кбит/сек
Каналы : 2 канала
Частота : 48,0 КГц
Метод сжатия : С потерями
Размер потока : 68,2 Мбайт (10%)
Выравнивание : Разделение по промежуткам
Продолжительность промежутка : 42 мс. (1,00 видеокадр)
Время предзагрузки промежутка : 500 мс.

Аудио #2
Идентификатор : 2
Формат : MPEG Audio
Версия формата : Version 1
Профиль формата : Layer 3
Режим : Joint stereo
Идентификатор кодека : 55
Идентификатор кодека/Подсказка : MP3
Продолжительность : 49 м.
Вид битрейта : Постоянный
Битрейт : 192 Кбит/сек
Каналы : 2 канала
Частота : 48,0 КГц
Метод сжатия : С потерями
Размер потока : 68,2 Мбайт (10%)
Выравнивание : Разделение по промежуткам
Продолжительность промежутка : 42 мс. (1,00 видеокадр)
Время предзагрузки промежутка : 500 мс.
01. Little Fish / Маленькая рыбка
02. The Thunder Man / Человек-гром
03. The Warrior Class / Класс воина
04. Bloodlines / Род
05. The Truth About Unicorns / Правда о единорогах
06. Armies of One / Армии одного
07. Ways to Bury a Man / Способы похоронить человека
08. Evil for Evil / Злом за зло
09. Homecoming / Возвращение на родину
10. Bullets and Tears / Пули и слезы
Скриншоты:



Время раздачи: 24/7 - круглосуточно (по возможности)
Не забывайте говорить Спасибо. Не уходите с раздачи!   
Торрент: Зарегистрирован [12 янв 2014, 12:57]
Статус:
Проверен
 
.torrent скачан: 0 раз
Хэш: 5e98a52898dcce7ed4126486f28440232ffda018
Размер: 6.72 ГБ (7 217 649 664 байт)
   Стать Автором раздачи
   
Цитата
  • Похожие торренты
    Ответы
    Просмотры
    Последнее сообщение

Вернуться в Банши / Banshee

Кто сейчас на конференции

Сейчас эту тему просматривают: нет зарегистрированных пользователей и гости: 1