Банши / Banshee (2015) HDTV [H.264/1080i-LQ] (сезон 3, серии 1-10 из 10) Amedia

 Статистика раздачи 
Размер: 22.85 ГБ   |  Зарегистрирован: 16 фев 2015, 13:18   |   .torrent скачан: 0 раз
Сидеров: 0  [ 0 байт/сек ]     Личеров: 0  [ 0 байт/сек ]  
  
Аватара пользователя
 
Раздал: 256.39 ГБ
Скачал: 432.89 ГБ
Ратио: 0.672
Сообщения: 189363
Стаж: 7 лет 11 месяцев 13 дней

Банши / Banshee (2015) HDTV [H.264/1080i-LQ] (сезон 3, серии 1-10 из 10) Amedia

Производство: "Your Face Goes Here Entertainment", "Cinemax", США
Жанр: драма, криминал, детектив

Перевод: многоголосый закадровый, профессиональный - Amedia

Режиссер: Мигель Сапочник, Грег Яйтанс
Актеры: Энтони Старр, Ивана Миличевич, Хун Ли, Рас Блэквелл, Триесте Келли Данн, Лили Симмонс, Фрэнки Фэйзон, Мэтт Сервитто, Деметриус Гросс, Ульрих Томсен, Райанн Шэйн, Бен Кросс, Энтони Руйвивар, Мэттью Ройч

Описание фильма:
Главный герой Banshee — бывший заключенный и профессиональный вор, который присваивает себе личность шерифа Банши (городка в Пенсильвании), где он продолжает нарушать закон, хотя ему не дают покоя гангстеры, которых он предал много лет назад.

http://www.imdb.com/title/tt2017109/?ref_=plg_rt_1 СЭМПЛ
Дата мировой премьеры: 10.01.2015
Дата российской премьеры: 10.01.2015

Продолжительность: ~ 00:50:00 серия
Качество видео: HDTV

Видеокодек: AVC/H.264
Битрейт видео: ~6000 Kbps
Размер кадра: 1920x1080 (16:9)
Аудио #1: /RUS/ AC3, 5.1 ch, 384 Kbps - многоголосый закадровый
Аудио #2: /ENG/ AC3, 2.0 ch, 192 Kbps - оригинал
Код: выделить всеОбщее
Уникальный идентификатор : 216868760935608589115609061153652267858 (0xA32767710D9CD4FAA59EFA818DFADB52)
Полное имя : E:\DOWNLOADS\Банши (3 сезон) 2015 HDTV 1080\Банши 3 - 01 серия.mkv
Формат : Matroska
Версия формата : Version 4 / Version 2
Размер файла : 2,24 Гбайт
Продолжительность : 48 м.
Общий поток : 6657 Кбит/сек
Дата кодирования : UTC 2015-02-16 06:35:43
Программа кодирования : mkvmerge v6.1.0 ('Old Devil') built on Mar 4 2013 09:10:42
Библиотека кодирования : libebml v1.3.0 + libmatroska v1.4.0

Видео
Идентификатор : 1
Формат : AVC
Формат/Информация : Advanced Video Codec
Профиль формата : High@L4.0
Параметр CABAC формата : Да
Параметр ReFrames формата : 4 кадра
Идентификатор кодека : V_MPEG4/ISO/AVC
Продолжительность : 48 м.
Битрейт : 5948 Кбит/сек
Ширина : 1920 пикселей
Высота : 1080 пикселей
Соотношение сторон : 16:9
Режим частоты кадров : Постоянный
Частота кадров : 25,000 кадров/сек
Стандарт вещания : Component
Цветовое пространство : YUV
Субдискретизация насыщенности : 4:2:0
Битовая глубина : 8 бит
Тип развёртки : Чересстрочная
Порядок развёртки : Верхнее поле первое
Бит/(Пиксели*Кадры) : 0.115
Размер потока : 2,00 Гбайт (89%)
Default : Да
Forced : Нет
Основные цвета : BT.709
Характеристики трансфера : BT.709
Коэффициенты матрицы : BT.709

Аудио #1
Идентификатор : 2
Формат : AC-3
Формат/Информация : Audio Coding 3
Расширение режима : CM (complete main)
Параметр Endianness формата : Big
Идентификатор кодека : A_AC3
Продолжительность : 48 м.
Вид битрейта : Постоянный
Битрейт : 384 Кбит/сек
Каналы : 6 каналов
Расположение каналов : Front: L C R, Side: L R, LFE
Частота : 48,0 КГц
Битовая глубина : 16 бит
Метод сжатия : С потерями
Размер потока : 133 Мбайт (6%)
Язык : Russian
Default : Да
Forced : Нет

Аудио #2
Идентификатор : 3
Формат : AC-3
Формат/Информация : Audio Coding 3
Расширение режима : CM (complete main)
Параметр Endianness формата : Big
Идентификатор кодека : A_AC3
Продолжительность : 48 м.
Вид битрейта : Постоянный
Битрейт : 192 Кбит/сек
Каналы : 2 канала
Расположение каналов : Front: L R
Частота : 48,0 КГц
Битовая глубина : 16 бит
Метод сжатия : С потерями
Размер потока : 66,3 Мбайт (3%)
Язык : English
Default : Нет
Forced : Нет
01 серия - The Fire Trials / Испытание огнем
02 серия - Snakes and Whatnot / Змеи и вообще
03 серия - A Fixer of Sorts / Я решаю проблемы
04 серия - Real Life Is The Nightmare / Реальность это кошмар
05 серия - Tribal / Племя
06 серия - We Were All Someone Else Yesterday / Вчера мы были другими
07 серия - You Can't Hide From The Dead / От мертвых не спрячешься
08 серия - All the Wisdom I Got Left / Вся мудрость что у меня осталось
09 серия - Even God Doesn't Know What to Make of You / Даже Бог не знает, что с тобой делать
10 серия - We All Pay Eventually / Мы все заплатим, рано или поздно
Скриншоты:





Время раздачи: с 10.00 до 20.00
Не забывайте говорить Спасибо. Не уходите с раздачи!   
Торрент: Зарегистрирован [16 фев 2015, 13:18]
Статус:
Проверен
 
.torrent скачан: 0 раз
Хэш: f8a007add5a4e7a6150d4066bf1c52e6321633ea
Размер: 22.85 ГБ (24 538 619 722 байт)
   Стать Автором раздачи
   
Цитата
  • Похожие торренты
    Ответы
    Просмотры
    Последнее сообщение

Вернуться в Банши / Banshee

Кто сейчас на конференции

Сейчас эту тему просматривают: нет зарегистрированных пользователей и гости: 1