Банши / Banshee (2015) WEB-DLRip (сезон 3, серии 1-10 из 10) NewStudio, Amedia

 Статистика раздачи 
Размер: 11.4 ГБ   |  Зарегистрирован: 16 фев 2015, 13:32   |   .torrent скачан: 0 раз
Сидеров: 0  [ 0 байт/сек ]     Личеров: 0  [ 0 байт/сек ]  
  
Аватара пользователя
 
Раздал: 256.39 ГБ
Скачал: 432.89 ГБ
Ратио: 0.672
Сообщения: 189292
Стаж: 7 лет 11 месяцев 4 дня

Банши / Banshee (2015) WEB-DLRip (сезон 3, серии 1-10 из 10) NewStudio, Amedia

Производство: "Your Face Goes Here Entertainment", "Cinemax", США
Жанр: драма, криминал, детектив

Перевод:
многоголосый закадровый, профессиональный - NewStudio
многоголосый закадровый, профессиональный - Amedia

Режиссер: Мигель Сапочник, Грег Яйтанс
Актеры: Энтони Старр, Ивана Миличевич, Хун Ли, Рас Блэквелл, Триесте Келли Данн, Лили Симмонс, Фрэнки Фэйзон, Мэтт Сервитто, Деметриус Гросс, Ульрих Томсен, Райанн Шэйн, Бен Кросс, Энтони Руйвивар, Мэттью Ройч

Описание фильма:
Главный герой Banshee — бывший заключенный и профессиональный вор, который присваивает себе личность шерифа Банши (городка в Пенсильвании), где он продолжает нарушать закон, хотя ему не дают покоя гангстеры, которых он предал много лет назад.

http://www.imdb.com/title/tt2017109/?ref_=plg_rt_1 СЭМПЛ
Дата мировой премьеры: 10.01.2015
Дата российской премьеры: 10.01.2015

Продолжительность: ~ 00:50:00 серия
Качество видео: WEB-DLRip

Видеокодек: Xvid
Битрейт видео: ~2000 Kbps
Размер кадра: 720x400 (16:9)
Аудио #1: /RUS/ AC3, 5.1 ch, 384 Kbps - многоголосый закадровый - NewStudio
Аудио #1: /RUS/ AC3, 5.1 ch, 384 Kbps - многоголосый закадровый - Amedia
Аудио #3: /ENG/ AC3, 5.1 ch, 384 Kbps - оригинал
Код: выделить всеОбщее
Полное имя                               : E:\DOWNLOADS\Банши (3 сезон) 2015 WEB-DLRip\Банши 3 - 01 серия.avi
Формат                                   : AVI
Формат/Информация                        : Audio Video Interleave
Размер файла                             : 1,11 Гбайт
Продолжительность                        : 50 м.
Общий поток                              : 3171 Кбит/сек
Программа кодирования                    : VirtualDubMod 1.5.10.3 | www.virtualdub-fr.org || (build 2550/release)
Библиотека кодирования                   : VirtualDubMod build 2550/release

Видео
Идентификатор                            : 0
Формат                                   : MPEG-4 Visual
Профиль формата                          : Advanced Simple@L5
Параметр BVOP формата                    : 1
Параметр QPel формата                    : Нет
Параметр GMC формата                     : Без точки перехода
Параметр матрицы формата                 : Default (MPEG)
Идентификатор кодека                     : XVID
Идентификатор кодека/Подсказка           : XviD
Продолжительность                        : 50 м.
Битрейт                                  : 2000 Кбит/сек
Ширина                                   : 720 пикселей
Высота                                   : 400 пикселей
Соотношение сторон                       : 16:9
Частота кадров                           : 23,976 кадра/сек
Цветовое пространство                    : YUV
Субдискретизация насыщенности            : 4:2:0
Битовая глубина                          : 8 бит
Тип развёртки                            : Прогрессивная
Метод сжатия                             : С потерями
Бит/(Пиксели*Кадры)                      : 0.290
Размер потока                            : 720 Мбайт (63%)
Библиотека кодирования                   : XviD 65

Аудио #1
Идентификатор                            : 1
Формат                                   : AC-3
Формат/Информация                        : Audio Coding 3
Расширение режима                        : CM (complete main)
Параметр Endianness формата              : Big
Идентификатор кодека                     : 2000
Продолжительность                        : 50 м.
Вид битрейта                             : Постоянный
Битрейт                                  : 384 Кбит/сек
Каналы                                   : 6 каналов
Расположение каналов                     : Front: L C R, Side: L R, LFE
Частота                                  : 48,0 КГц
Битовая глубина                          : 16 бит
Метод сжатия                             : С потерями
Размер потока                            : 138 Мбайт (12%)
Выравнивание                             : Разделение по промежуткам
Продолжительность промежутка             : 42  мс. (1,00 видеокадр)
Время предзагрузки промежутка            : 500  мс.

Аудио #2
Идентификатор                            : 2
Формат                                   : AC-3
Формат/Информация                        : Audio Coding 3
Расширение режима                        : CM (complete main)
Параметр Endianness формата              : Big
Идентификатор кодека                     : 2000
Продолжительность                        : 50 м.
Вид битрейта                             : Постоянный
Битрейт                                  : 384 Кбит/сек
Каналы                                   : 6 каналов
Расположение каналов                     : Front: L C R, Side: L R, LFE
Частота                                  : 48,0 КГц
Битовая глубина                          : 16 бит
Метод сжатия                             : С потерями
Размер потока                            : 138 Мбайт (12%)
Выравнивание                             : Разделение по промежуткам
Продолжительность промежутка             : 42  мс. (1,00 видеокадр)
Время предзагрузки промежутка            : 500  мс.

Аудио #3
Идентификатор                            : 3
Формат                                   : AC-3
Формат/Информация                        : Audio Coding 3
Расширение режима                        : CM (complete main)
Параметр Endianness формата              : Big
Идентификатор кодека                     : 2000
Продолжительность                        : 50 м.
Вид битрейта                             : Постоянный
Битрейт                                  : 384 Кбит/сек
Каналы                                   : 6 каналов
Расположение каналов                     : Front: L C R, Side: L R, LFE
Частота                                  : 48,0 КГц
Битовая глубина                          : 16 бит
Метод сжатия                             : С потерями
Размер потока                            : 138 Мбайт (12%)
Выравнивание                             : Разделение по промежуткам
Продолжительность промежутка             : 42  мс. (1,00 видеокадр)
Время предзагрузки промежутка            : 500  мс.
01 серия - The Fire Trials / Испытание огнем
02 серия - Snakes and Whatnot / Змеи и вообще
03 серия - A Fixer of Sorts / Я решаю проблемы
04 серия - Real Life Is The Nightmare / Реальность это кошмар
05 серия - Tribal / Племя
06 серия - We Were All Someone Else Yesterday / Вчера мы были другими
07 серия - You Can't Hide From The Dead / От мертвых не спрячешься
08 серия - All The Wisdom I Got Left / Вся мудрость, что у меня осталась
09 серия - Even God Doesn't Know What to Make of You / Даже Бог не знает, что с тобой делать
10 серия - We All Pay Eventually / Мы все заплатим, рано или поздно
Скриншоты:





Время раздачи: с 10.00 до 20.00
Не забывайте говорить Спасибо. Не уходите с раздачи!   
Торрент: Зарегистрирован [16 фев 2015, 13:32]
Статус:
Проверен
 
.torrent скачан: 0 раз
Хэш: 2548e4096dace203a79a3bc4d0877a3692141f5e
Размер: 11.4 ГБ (12 237 273 088 байт)
   Стать Автором раздачи
   
Цитата
  • Похожие торренты
    Ответы
    Просмотры
    Последнее сообщение

Вернуться в Банши / Banshee

Кто сейчас на конференции

Сейчас эту тему просматривают: нет зарегистрированных пользователей и гости: 1