Банши: Предыстория / Banshee: Origins (2013 - 2016) WEBRip [H.264] (сезон 1-4 из 4, серии 1-41 из 41) С.Ващенко, Amedia

 Статистика раздачи 
Размер: 2.72 ГБ   |  Зарегистрирован: 22 мар 2018, 15:21   |   .torrent скачан: 2 раз
Сидеров: 6  [ 0 байт/сек ]     Личеров: 4  [ 0 байт/сек ]  
  
Аватара пользователя
Главный редактор
Главный редактор
 
Раздал: 78.18 ТБ
Скачал: 3.73 ТБ
Ратио: 21.403
Сообщения: 209757
Стаж: 8 лет 7 месяцев 22 дня
Откуда: Санкт-Петербург

Банши: Предыстория / Banshee: Origins (2013 - 2016) WEBRip [H.264] (сезон 1-4 из 4, серии 1-41 из 41) С.Ващенко, Amedia

Производство: США / Cinemax
Жанр: Боевик, Драма, Криминал

Режиссер: Оле Кристиан Мадсен, Грег Яйтанс и др.
Актеры: Энтони Старр, Ивана Миличевич, Ульрих Томсен, Хун Ли, Фрэнки Фэйзон, Лили Симмонс, Триесте Келли Данн, Рас Блэквелл, Мэтт Сервитто и др.

Описание:
Мини-сериал (1-3 мин. серия), рассказывающий о некоторых поступках главных героев до событий основного сериала.
Просматривать необходимо после сериала "Банши".

http://www.imdb.com/title/tt3644692/?ref_=plg_rt_1

Релиз от: mebf109

Продолжительность: ~1-3 мин. серия, общее время - 02:11:33
Качество видео: WebRip
Перевод: Одноголосый закадровый (Семен Ващенко) - 1-3 сезоны (Внимание! Присутствует обсценная лексика); Многоголосый закадровый профессиональный (Amedia) - 4 сезон
Субтитры: Отсутствуют

Видео: AVC/H.264, 1024х576, ~2830 Kbps
Аудио: AC3, 2 ch, 128 Kbps
Код: Выделить всё
General
Unique ID                   : 222035124759120992607851905021936228846 (0xA70A68D822299FC09BE8097F78FD59EE)
Complete name               : D:\Проба\Банши.Предыстория(Banshee.Origins)WebRip\Banshee.Origins-2(2014)WebRip.by.mebf109.mkv
Format                      : Matroska
Format version              : Version 4 / Version 2
File size                   : 966 MiB
Duration                    : 45mn 39s
Overall bit rate            : 2 957 Kbps
Encoded date                : UTC 2018-03-20 10:55:34
Writing application         : mkvmerge v14.0.0 ('Flow') 64bit
Writing library             : libebml v1.3.4 + libmatroska v1.4.5
DURATION                    : 00:45:39.552000000
NUMBER_OF_FRAMES            : 85611
NUMBER_OF_BYTES             : 43832832
_STATISTICS_WRITING_APP     : mkvmerge v14.0.0 ('Flow') 64bit
_STATISTICS_WRITING_DATE_UT : 2018-03-20 10:55:34
_STATISTICS_TAGS            : BPS DURATION NUMBER_OF_FRAMES NUMBER_OF_BYTES

Video
ID                          : 1
Format                      : AVC
Format/Info                 : Advanced Video Codec
Format profile              : [url=http://nnmclub.to/mailto:High@L4.1]High@L4.1[/url]
Format settings, CABAC      : Yes
Format settings, ReFrames   : 12 frames
Codec ID                    : V_MPEG4/ISO/AVC
Duration                    : 45mn 39s
Bit rate                    : 2 830 Kbps
Width                       : 1 024 pixels
Height                      : 576 pixels
Display aspect ratio        : 16:9
Frame rate mode             : Constant
Frame rate                  : 23.976 fps
Color space                 : YUV
Chroma subsampling          : 4:2:0
Bit depth                   : 8 bits
Scan type                   : Progressive
Bits/(Pixel*Frame)          : 0.200
Stream size                 : 905 MiB (94%)
Writing library             : x264 core 130 r2273 b3065e6
Encoding settings           : cabac=1 / ref=12 / deblock=1:0:0 / analyse=0x3:0x133 / me=umh / subme=10 / psy=1 / psy_rd=1.00:0.00 / mixed_ref=1 / me_range=32 / chroma_me=1 / trellis=2 / 8x8dct=1 / cqm=0 / deadzone=21,11 / fast_pskip=0 / chroma_qp_offset=-2 / threads=3 / lookahead_threads=1 / sliced_threads=0 / nr=0 / decimate=0 / interlaced=0 / bluray_compat=0 / constrained_intra=0 / bframes=6 / b_pyramid=2 / b_adapt=2 / b_bias=0 / direct=3 / weightb=1 / open_gop=0 / weightp=2 / keyint=250 / keyint_min=23 / scenecut=40 / intra_refresh=0 / rc_lookahead=60 / rc=2pass / mbtree=1 / bitrate=2830 / ratetol=1.0 / qcomp=0.60 / qpmin=0 / qpmax=69 / qpstep=4 / cplxblur=20.0 / qblur=0.5 / ip_ratio=1.40 / aq=1:1.00
Default                     : Yes
Forced                      : No

Audio
ID                          : 2
Format                      : AC-3
Format/Info                 : Audio Coding 3
Mode extension              : CM (complete main)
Format settings, Endianness : Big
Codec ID                    : A_AC3
Duration                    : 45mn 39s
Bit rate mode               : Constant
Bit rate                    : 128 Kbps
Channel(s)                  : 2 channels
Channel positions           : Front: L R
Sampling rate               : 48.0 KHz
Compression mode            : Lossy
Stream size                 : 41.8 MiB (4%)
Default                     : Yes
Forced                      : No
Чтобы не нагромождать четыре десятка файлов по 1-3 мин, серии объединены посезонно.
Banshee: Origins – 1 (2013) Общее время – 00:33:06

01. Olek Drops a Dime / Олег звонит другу / 15 лет назад
02. A Thief, Not a Killer / Вор, не убийца / 15 лет назад
03. Carrie at the Gate / Керри у ворот / 14 лет назад
04. Looking for My Exit / В поисках выхода / 11 лет назад
05. Sugar's Release / Освобождение Шугара / 10 лет назад
06. The Forge / Кузница / 10 лет назад
07. Siobhan Interrupted / Расставание Шивон / 5 лет назад
08. Kings and Pawns / Короли и креветки / 5 лет назад
09. Checking In / Проверка / 3 года назад
10. The Women / Женщина / 3 года назад
11. Carrie and Deva / Керри и Дэва / 2 года назад
12. Passed Over / Смена / 2 недели назад
13. The Real Lucas Hood / Настоящий Лукас Худ / Сегодня

Banshee: Origins – 2 (2014) Общее время – 00:45:39

01. Hotwire / Угон / 17 лет назад
02. Allenwood / Алленвуд / (2 серии) 17 и 13 лет назад
03. Interrogation / Допрос / (3 серии) 15 лет назад
04. The Phone Call / Телефонный звонок / 15 лет назад
05. The Diner / Ужин / 15 лет назад
06. The Person You Were Meant to Be / Человек, которым ты должна быть / 15 лет назад
07. Brothers / Братья / 11 лет назад
08. The Priest / Священник / 10 лет назад
09. The Field / Поле / 5 лет назад

Banshee: Origins – 3 (2014) Общее время – 00:25:59

01. Getting to Know You / Знакомство с тобой / 17 лет назад
02. Takeover / Рейдерский захват / 15 лет назад
03. Always Be Prepared / Будь готов ко всему / 9 лет назад
04. Busy Night / Тяжелая ночка / 8 лет назад
05. Bugs and Thugs / Букашки и мордовороты / 5 лет назад
06. Already Dead / Уже мертва / 4 года назад
07. Off Duty / Не на службе / 2 года назад
08. Birthday / День рождения / 6 месяцев назад

Banshee: Origins – 4 (2016) Общее время – 00:26:49

01. Comfort / Уют / 3 года назад
02. Aeschylus / Эсхил / 2 года назад
03. Promise / Обещание / 2 года назад
04. Cronus / Кронос / 2 года назад
05. Hope / Надежда / 20 месяцев назад
06. Escape / Побег / 4 месяца назад
07. Drown / Тонуть / 2 недели назад
08. Epilogue / Эпилог /

Общее время:02:11:33

Скриншоты:




Время раздачи: 24/7 (до появления первых 3-5 скачавших)
Не забывайте говорить Спасибо. Не уходите с раздачи!   
Торрент: Зарегистрирован [22 мар 2018, 15:21]
Статус:
Проверен
 
.torrent скачан: 2 раз
Хэш: ca77c24c515498a814e93d959ebbc4109f73fc1e
Размер: 2.72 ГБ (2 918 466 172 байт)
   Стать Автором раздачи
   
Цитата

Вернуться в Банши / Banshee

Кто сейчас на конференции

Сейчас эту тему просматривают: нет зарегистрированных пользователей и гости: 1