Банши / Banshee (2016) HDTVRip (сезон 4, серии 1-8 из 8) NewStudio

 Статистика раздачи 
Размер: 4.8 ГБ   |  Зарегистрирован: 04 апр 2016, 20:06   |   .torrent скачан: 0 раз
Сидеров: 2  [ 0 байт/сек ]     Личеров: 0  [ 0 байт/сек ]  
  
Аватара пользователя
Главный редактор
Главный редактор
 
Раздал: 78.18 ТБ
Скачал: 3.73 ТБ
Ратио: 21.403
Сообщения: 209757
Стаж: 8 лет 7 месяцев 21 день
Откуда: Санкт-Петербург

Банши / Banshee (2016) HDTVRip (сезон 4, серии 1-8 из 8)

«Small Town. Big Secrets»
Производство: США / Your Face Goes Here Entertainment, Cinemax
Жанр: боевик, криминал, драма

Режиссер: Оле Кристиан Мадсен, Грег Яйтанс, Лони Перистер
Актеры: Энтони Старр, Ивана Миличевич, Ульрих Томсен, Хун Ли, Фрэнки Фэйзон, Лили Симмонс, Триесте Келли Данн, Рас Блэквелл, Мэтт Сервитто, Деметриус Гросс и др.

Описание:
Лжешерифа Лукаса Худа и его бригаду ждут новые испытания и передряги, которые опять потребуют балансировать по обе стороны закона. А еще в последнем сезоне появляется харизматичный персонаж – сексуальная и поразительно безрассудная криминалистка ФБР, не без греха. Итак, Худ, Кэрри, Проктор и банда возвращаются, чтобы вступить в кульминационную гонку под названием “все или ничего”.

http://www.imdb.com/title/tt2017109/?ref_=plg_rt_1

Продолжительность: ~00:58:00 серия
Качество видео: HDTVRip
Перевод: Многоголосый закадровый, профессиональный - NewStudio
Автор перевода: weirdie

Внимание! Присутствует ненормативная лексика.

Видео: XviD, 720x400 (16:9), ~1400 kb/s
Аудио Rus: MP3, 48,0 kHz, 2 ch, 128 kb/s — многоголосый закадровый
Аудио Eng: MP3, 48,0 kHz, 2 ch, 128 kb/s — оригинал
Код: выделить всеОбщее
Полное имя                               : D:\Банши (сезон 4) Banshee (2016) HDTVRip - NewStudio\Banshee.S04E01.HDTVRip.Rus.Eng.DV.NewStudio.avi
Формат                                   : AVI
Формат/Информация                        : Audio Video Interleave
Размер файла                             : 690 Мбайт
Продолжительность                        : 57 м.
Общий поток                              : 1677 Кбит/сек
Программа кодирования                    : VirtualDubModRus 1.5.10.2 (build 2542/release)
Библиотека кодирования                   : VirtualDubMod build 2542/release

Видео
Идентификатор                            : 0
Формат                                   : MPEG-4 Visual
Профиль формата                          : Advanced Simple@L5
Параметр BVOP формата                    : 2
Параметр QPel формата                    : Нет
Параметр GMC формата                     : Без точки перехода
Параметр матрицы формата                 : Default (MPEG)
Идентификатор кодека                     : XVID
Идентификатор кодека/Подсказка           : XviD
Продолжительность                        : 57 м.
Битрейт                                  : 1407 Кбит/сек
Ширина                                   : 720 пикселей
Высота                                   : 400 пикселей
Соотношение сторон                       : 16:9
Частота кадров                           : 23,976 (23976/1000) кадра/сек
Цветовое пространство                    : YUV
Субдискретизация насыщенности            : 4:2:0
Битовая глубина                          : 8 бит
Тип развёртки                            : Прогрессивная
Метод сжатия                             : С потерями
Бит/(Пиксели*Кадры)                      : 0.204
Размер потока                            : 579 Мбайт (84%)
Библиотека кодирования                   : XviD 73

Аудио #1
Идентификатор                            : 1
Формат                                   : MPEG Audio
Версия формата                           : Version 1
Профиль формата                          : Layer 3
Режим                                    : Joint stereo
Расширение режима                        : MS Stereo
Идентификатор кодека                     : 55
Идентификатор кодека/Подсказка           : MP3
Продолжительность                        : 57 м.
Вид битрейта                             : Постоянный
Битрейт                                  : 128 Кбит/сек
Каналы                                   : 2 канала
Частота                                  : 48,0 КГц
Метод сжатия                             : С потерями
Размер потока                            : 52,7 Мбайт (8%)
Выравнивание                             : Соединение по промежуткам
Продолжительность промежутка             : 42  мс. (1,00 видеокадр)
Время предзагрузки промежутка            : 504  мс.

Аудио #2
Идентификатор                            : 2
Формат                                   : MPEG Audio
Версия формата                           : Version 1
Профиль формата                          : Layer 3
Режим                                    : Joint stereo
Расширение режима                        : MS Stereo
Идентификатор кодека                     : 55
Идентификатор кодека/Подсказка           : MP3
Продолжительность                        : 57 м.
Вид битрейта                             : Постоянный
Битрейт                                  : 128 Кбит/сек
Каналы                                   : 2 канала
Частота                                  : 48,0 КГц
Метод сжатия                             : С потерями
Размер потока                            : 52,7 Мбайт (8%)
Выравнивание                             : Соединение по промежуткам
Продолжительность промежутка             : 42  мс. (1,00 видеокадр)
Время предзагрузки промежутка            : 504  мс.
Библиотека кодирования                   : LAME3.99.5
01. Something Out of the Bible / Как персонаж из Библии
02. The Burden of Beauty / Бремя красоты
03. Job / Джоб
04. Innocent Might Be a Bit of a Stretch / Невиновен - это небольшое преувеличение
05. A Little Late to Grow a Pair / Поздновато растить яйца
06. Only One Way a Dogfight Ends / У собачьего боя бывает лишь один исход
07. Truths Other Than the Ones You Tell Yourself / Другие истины, помимо тех, что ты признаёшь
08. Requiem / Реквием

Скриншоты:




Время раздачи: до 3-х скачавших, далее по возможности.
Не забывайте говорить Спасибо. Не уходите с раздачи!   
Торрент: Зарегистрирован [04 апр 2016, 20:06]
Статус:
Проверен
 
.torrent скачан: 0 раз
Хэш: 739afe0671c40c5eec268b22fa00ee4eba0b0f0c
Размер: 4.8 ГБ (5 151 432 704 байт)
   Стать Автором раздачи
   
Цитата
  • Похожие торренты
    Ответы
    Просмотры
    Последнее сообщение

Вернуться в Банши / Banshee

Кто сейчас на конференции

Сейчас эту тему просматривают: нет зарегистрированных пользователей и гости: 1