Мистер Мерседес / Mr. Mercedes (2017) WEB-DL [H.264/720р-LQ] (сезон 1, серии 1-10 из 10) Good People

 Статистика раздачи 
Размер: 14.1 ГБ   |  Зарегистрирован: 13 авг 2017, 22:27   |   .torrent скачан: 8 раз
Сидеров: 5  [ 0 байт/сек ]     Личеров: 1  [ 0 байт/сек ]  
  
Аватара пользователя
Главный редактор
Главный редактор
 
Раздал: 90.01 ТБ
Скачал: 3.78 ТБ
Ратио: 24.248
Сообщения: 289042
Стаж: 9 лет 5 месяцев 14 дней
Откуда: Санкт-Петербург

Мистер Мерседес / Mr. Mercedes (2017) WEB-DL (сезон 1, серии 1-10 из 10) Good People

Производство: США
Жанр: триллер

Режиссер: Джек Бендер
Актеры: Брендан Глисон, Джаррель Джером, Гарри Тредэвэй, Келли Линч, Эд Андерсон, Роб Нитер, Джастин Люпе

Описание:
Отставной полицейский Билл Ходжес возвращается к работе, так как ему не дает покоя нераскрытое дело — жестокое убийство восьми человек. Брейди Хартфилд не может забыть пьянящее чувство, когда на угнанном «мерседесе» он врезался в группу ни в чем не повинных людей. Брейди не хочет останавливаться — он уже планирует новое преступление, на этот раз намного более масштабное...

http://www.imdb.com/title/tt4354880/?ref_=plg_rt_1
Дата мировой премьеры: 9 августа 2017
Дата премьеры в России: 11 августа 2017

Возраст: 18+ (зрителям, достигшим 18 лет)

Продолжительность: ~ 00:50:00 серия
Качество видео: WEB-DL
Перевод: Многоголосый закадровый, профессиональный (Good People)

Видео: AVC/H.264, 1280х720, (16:9), ~3778 kbps
Аудио 1: AC3, 2 ch, 192 kbps, CBR | русский, многоголосый закадровый
Аудио 2: AAC, 2 ch, 192 kbps, CBR | английский
Код: Выделить всё
Общее
Уникальный идентификатор                 : 182530545312390164091907930504082344538 (0x89521AB34A3511F78AD66E9F0D9DCA5A)
Полное имя                               : D:\FILMЬl\Mr. Mercedes. S01(GP)\MR.Mercedes_S01_Ep01.mkv
Формат                                   : Matroska
Версия формата                           : Version 4 / Version 2
Размер файла                             : 1,66 Гбайт
Продолжительность                        : 57 м. 3 с.
Общий поток                              : 4163 Кбит/сек
Дата кодирования                         : UTC 2017-08-13 18:39:42
Программа кодирования                    : mkvmerge v14.0.0 ('Flow') 64bit
Библиотека кодирования                   : libebml v1.3.4 + libmatroska v1.4.5

Видео
Идентификатор                            : 1
Формат                                   : AVC
Формат/Информация                        : Advanced Video Codec
Профиль формата                          : [url=http://nnmclub.to/mailto:Main@L3.1]Main@L3.1[/url]
Параметр CABAC формата                   : Да
Параметр RefFrames формата               : 4 кадра
Идентификатор кодека                     : V_MPEG4/ISO/AVC
Продолжительность                        : 57 м. 3 с.
Вид битрейта                             : Постоянный
Битрейт                                  : 3778 Кбит/сек
Номинальный битрейт                      : 4000 Кбит/сек
Ширина                                   : 1280 пикселей
Высота                                   : 720 пикселей
Соотношение сторон                       : 16:9
Режим частоты кадров                     : Постоянный
Частота кадров                           : 30,000 кадров/сек
Цветовое пространство                    : YUV
Субдискретизация насыщенности            : 4:2:0
Битовая глубина                          : 8 бит
Тип развёртки                            : Прогрессивная
Бит/(Пиксели*Кадры)                      : 0.137
Размер потока                            : 1,51 Гбайт (91%)
Default                                  : Да
Forced                                   : Нет

Аудио #1
Идентификатор                            : 2
Формат                                   : AC-3
Формат/Информация                        : Audio Coding 3
Параметр Endianness формата              : Big
Идентификатор кодека                     : A_AC3
Продолжительность                        : 57 м. 3 с.
Вид битрейта                             : Постоянный
Битрейт                                  : 192 Кбит/сек
Каналы                                   : 2 канала
Расположение каналов                     : Front: L R
Частота                                  : 48,0 КГц
Частота кадров                           : 31,250 кадров/сек (1536 SPF)
Битовая глубина                          : 16 бит
Метод сжатия                             : С потерями
Задержка видео                           : -23 мс.
Размер потока                            : 78,4 Мбайт (5%)
Язык                                     : Russian
ServiceKind/String                       : Complete Main
Default                                  : Да
Forced                                   : Нет

Аудио #2
Идентификатор                            : 3
Формат                                   : AAC
Формат/Информация                        : Advanced Audio Codec
Профиль формата                          : LC
Идентификатор кодека                     : A_AAC
Продолжительность                        : 57 м. 3 с.
Битрейт                                  : 192 Кбит/сек
Каналы                                   : 2 канала
Расположение каналов                     : Front: L R
Частота                                  : 44,1 КГц
Частота кадров                           : 43,066 кадра/сек (1024 SPF)
Метод сжатия                             : С потерями
Задержка видео                           : -23 мс.
Размер потока                            : 77,4 Мбайт (5%)
Язык                                     : English
Default                                  : Нет
Forced                                   : Нет

Скриншоты:




Время раздачи: С 09:00 до 23:30 (до появления первых 3-5 скачавших)
Не забывайте говорить Спасибо. Не уходите с раздачи!   
Торрент: Зарегистрирован [13 авг 2017, 22:27]
Статус:
Проверен
 
.torrent скачан: 8 раз
Хэш: fc2187b02eeb92c44d4b81ddab7c46150d5c4f74
Размер: 14.1 ГБ (15 142 546 281 байт)
   Стать Автором раздачи
   
Цитата

Вернуться в Мистер Мерседес / Mr. Mercedes

Кто сейчас на конференции

Сейчас эту тему просматривают: нет зарегистрированных пользователей и гости: 1