Мистер Мерседес / Mr. Mercedes (2017) HDTVRip [H.264/1080i-LQ] (сезон 1, серии 1-10 из 10) SDI Media

 Статистика раздачи 
Размер: 23.16 ГБ   |  Зарегистрирован: 15 окт 2017, 03:34   |   .torrent скачан: 0 раз
Сидеров: 0  [ 0 байт/сек ]     Личеров: 0  [ 0 байт/сек ]  
  
Аватара пользователя
Главный редактор
Главный редактор
 
Раздал: 90.01 ТБ
Скачал: 3.78 ТБ
Ратио: 24.248
Сообщения: 288697
Стаж: 9 лет 5 месяцев 7 дней
Откуда: Санкт-Петербург

Мистер Мерседес / Mr. Mercedes (2017) HDTVRip

Производство: США / Sonar Entertainment, Temple Hill Entertainment
Жанр: Триллер, экранизация

Режиссер: Джек Бендер
Актеры: Брендан Глисон, Джаррель Джером, Гарри Тредэвэй, Роберт Стэнтон, Брида Вул, Холланд Тейлор, Келли Линч, Скотт Лоуренс, Эд Андерсон, Мэри-Луиз Паркер ...

Описание:
Экранизация одноименного романа Стивена Кинга.
Отставной полицейский Билл Ходжес возвращается к работе, так как ему не дает покоя нераскрытое дело — жестокое убийство восьми человек. Брейди Хартфилд не может забыть пьянящее чувство, когда на угнанном «мерседесе» он врезался в группу ни в чем не повинных людей. Брейди не хочет останавливаться — он уже планирует новое преступление, на этот раз намного более масштабное. Биллу Ходжесу и его команде необходимо опередить его и спасти жизнь уже не десяткам, а сотням людей.

http://www.imdb.com/title/tt4354880/?ref_=plg_rt_1
Возраст: 18+ (зрителям, достигшим 18 лет. запрещено для детей)

Продолжительность: ~ 00:50:00 серия
Качество видео: HDTVRip
Перевод: Профессиональный многоголосый (SDI Media)
Субтитры: Отсутствуют

Видео: AVC, 1920x1080 (16:9), 25.000 fps, 6 062 Kbps (0.117 bit/pixel)
Аудио #1: AC-3, 48.0 KHz, 2 ch, 192 Kbps, CBR | Русский
Аудио #2: MP2, 48.0 KHz, 2 ch, 192 Kbps, CBR | Русский
Код: Выделить всё
Общее
Идентификатор                            : 1 (0x1)
Полное имя                               : D:\NNM\Мистер Мерседес\Mr. Mercedes 2017 HDTV 1080i-LQ\Mr. Mercedes 02.ts
Формат                                   : MPEG-TS
Размер файла                             : 2,44 Гбайт
Продолжительность                        : 51 м. 25 с.
Режим общего битрейта                    : Переменный
Общий поток                              : 6785 Кбит/сек

Видео
Идентификатор                            : 304 (0x130)
Идентификатор меню                       : 17104 (0x42D0)
Формат                                   : AVC
Формат/Информация                        : Advanced Video Codec
Профиль формата                          : [url=http://nnmclub.to/mailto:High@L4.1]High@L4.1[/url]
Параметр CABAC формата                   : Да
Параметр ReFrames формата                : 4 кадра
Идентификатор кодека                     : 27
Продолжительность                        : 51 м. 25 с.
Битрейт                                  : 6062 Кбит/сек
Ширина                                   : 1920 пикселей
Высота                                   : 1080 пикселей
Соотношение сторон                       : 16:9
Частота кадров                           : 25,000 кадров/сек
Стандарт вещания                         : Component
Цветовое пространство                    : YUV
Субдискретизация насыщенности            : 4:2:0
Битовая глубина                          : 8 бит
Тип развёртки                            : Чересстрочная
Метод сохранения типа развёртки          : Раздельные поля
Порядок развёртки                        : Верхнее поле первое
Бит/(Пиксели*Кадры)                      : 0.117
Размер потока                            : 2,18 Гбайт (89%)
Цветовой диапазон                        : Limited
Основные цвета                           : BT.709
Характеристики трансфера                 : BT.709
Коэффициенты матрицы                     : BT.709

Аудио #1
Идентификатор                            : 404 (0x194)
Идентификатор меню                       : 17104 (0x42D0)
Формат                                   : AC-3
Формат/Информация                        : Audio Coding 3
Расширение режима                        : CM (complete main)
Параметр Endianness формата              : Big
Идентификатор кодека                     : 6
Продолжительность                        : 51 м. 25 с.
Вид битрейта                             : Постоянный
Битрейт                                  : 192 Кбит/сек
Каналы                                   : 2 канала
Расположение каналов                     : Front: L R
Частота                                  : 48,0 КГц
Частота кадров                           : 31,250 кадров/сек (1536 spf)
Битовая глубина                          : 16 бит
Метод сжатия                             : С потерями
Задержка видео                           : -120 мс.
Размер потока                            : 70,6 Мбайт (3%)
Язык                                     : Russian

Аудио #2
Идентификатор                            : 405 (0x195)
Идентификатор меню                       : 17104 (0x42D0)
Формат                                   : MPEG Audio
Версия формата                           : Version 1
Профиль формата                          : Layer 2
Идентификатор кодека                     : 3
Продолжительность                        : 51 м. 25 с.
Вид битрейта                             : Постоянный
Битрейт                                  : 192 Кбит/сек
Каналы                                   : 2 канала
Частота                                  : 48,0 КГц
Метод сжатия                             : С потерями
Задержка видео                           : -120 мс.
Размер потока                            : 70,6 Мбайт (3%)
Язык                                     : Russian

Скриншоты:


Время раздачи:
Круглосуточно до 10 скачавших
Не забывайте говорить Спасибо. Не уходите с раздачи!   
Торрент: Зарегистрирован [15 окт 2017, 03:34]
Статус:
Проверен
 
.torrent скачан: 0 раз
Хэш: 07985bede799a7e129c254f997108409691cdb90
Размер: 23.16 ГБ (24 872 157 856 байт)
   Стать Автором раздачи
   
Цитата

Вернуться в Мистер Мерседес / Mr. Mercedes

Кто сейчас на конференции

Сейчас эту тему просматривают: нет зарегистрированных пользователей и гости: 1