Мистер Мерседес / Mr. Mercedes (2017) WEBRip [H.264/720p-LQ] (сезон 1, серии 1-10 из 10) AlexFilm [AD]

 Статистика раздачи 
Размер: 13.31 ГБ   |  Зарегистрирован: 12 авг 2017, 09:56   |   .torrent скачан: 0 раз
Сидеров: 0  [ 0 байт/сек ]     Личеров: 0  [ 0 байт/сек ]  
  
Аватара пользователя
Главный редактор
Главный редактор
 
Раздал: 90.01 ТБ
Скачал: 3.78 ТБ
Ратио: 24.248
Сообщения: 289077
Стаж: 9 лет 5 месяцев 15 дней
Откуда: Санкт-Петербург

Мистер Мерседес / Mr. Mercedes (2017) WEBRip [H.264/720p-LQ] (сезон 1, серии 1-10 из 10)

Производство: США / Sonar Entertainment, Temple Hill Entertainment
Жанр: Триллер

Режиссер: Джек Бендер
Актеры: Брендан Глисон, Джаррель Джером, Гарри Тредэвэй, Келли Линч, Эд Андерсон, Роб Нитер, Джастин Люпе

Описание:
Отставной полицейский Билл Ходжес возвращается к работе, так как ему не дает покоя нераскрытое дело — жестокое убийство восьми человек. Брейди Хартфилд не может забыть пьянящее чувство, когда на угнанном «мерседесе» он врезался в группу ни в чем не повинных людей. Брейди не хочет останавливаться — он уже планирует новое преступление, на этот раз намного более масштабное. Биллу Ходжесу и его команде необходимо опередить его и спасти жизнь уже не десяткам, а сотням людей.

http://www.imdb.com/title/tt4354880/?ref_=plg_rt_1
Дата мировой премьеры: 9 августа 2017
Дата премьеры в России: 11 августа 2017
Возраст: 18+ (зрителям, достигшим 18 лет. запрещено для детей)

Продолжительность: ~00:57:00 серия
Качество видео: WEBRip
Перевод: Многоголосый закадровый, профессиональный - AlexFilm
Субтитры: отсутствуют
Реклама: Присутствует аудио и текстовая реклама.

Видео: AVC/H.264, 1280x720 (16:9), ~3 697 kbps
Аудио 1: AC-3, 48,0 kHz, 2 ch, 192 kbps — русский, многоголосый закадровый
Аудио 2: AC-3, 48,0 kHz, 2 ch, 192 kbps — английский
Код: Выделить всё
General
Unique ID                   : 214408594400706876060591777561621316561 (0xA14D97DDDB925F978DC97D189B6C43D1)
Complete name               : G:\Мистер Мерседес 720р Alex\Mr.Mercedes - Season 1 (AlexFilm) WEB-DL 720p\Mr.Mercedes.s01e01.WEB-DL.720p.Rus.Eng.AlexFilm.mkv
Format                      : Matroska
Format version              : Version 4 / Version 2
File size                   : 1.66 GiB
Duration                    : 57 min 3 s
Overall bit rate mode       : Constant
Overall bit rate            : 4 164 kb/s
Movie name                  : Mr. Mercedes 1x01 @ AlexFilm
Encoded date                : UTC 2017-08-11 22:12:57
Writing application         : mkvmerge v7.1.0 ('Good Love') 64bit built on Jul 27 2014 13:06:55
Writing library             : libebml v1.3.0 + libmatroska v1.4.1

Video
ID                          : 1
Format                      : AVC
Format/Info                 : Advanced Video Codec
Format profile              : [url=http://nnmclub.to/mailto:Main@L3.1]Main@L3.1[/url]
Format settings, CABAC      : Yes
Format settings, ReFrames   : 4 frames
Codec ID                    : V_MPEG4/ISO/AVC
Duration                    : 57 min 3 s
Bit rate mode               : Constant
Bit rate                    : 3 697 kb/s
Nominal bit rate            : 4 000 kb/s
Width                       : 1 280 pixels
Height                      : 720 pixels
Display aspect ratio        : 16:9
Frame rate mode             : Constant
Frame rate                  : 30.000 FPS
Color space                 : YUV
Chroma subsampling          : 4:2:0
Bit depth                   : 8 bits
Scan type                   : Progressive
Bits/(Pixel*Frame)          : 0.134
Stream size                 : 1.47 GiB (89%)
Default                     : Yes
Forced                      : No

Audio #1
ID                          : 2
Format                      : AC-3
Format/Info                 : Audio Coding 3
Format settings, Endianness : Big
Codec ID                    : A_AC3
Duration                    : 57 min 3 s
Bit rate mode               : Constant
Bit rate                    : 192 kb/s
Channel(s)                  : 2 channels
Channel positions           : Front: L R
Sampling rate               : 48.0 kHz
Frame rate                  : 31.250 FPS (1536 spf)
Bit depth                   : 16 bits
Compression mode            : Lossy
Delay relative to video     : -23 ms
Stream size                 : 78.4 MiB (5%)
Title                       : DD2.0 AlexFilm
Language                    : Russian
Service kind                : Complete Main
Default                     : Yes
Forced                      : No

Audio #2
ID                          : 3
Format                      : AC-3
Format/Info                 : Audio Coding 3
Format settings, Endianness : Big
Codec ID                    : A_AC3
Duration                    : 57 min 3 s
Bit rate mode               : Constant
Bit rate                    : 192 kb/s
Channel(s)                  : 2 channels
Channel positions           : Front: L R
Sampling rate               : 48.0 kHz
Frame rate                  : 31.250 FPS (1536 spf)
Bit depth                   : 16 bits
Compression mode            : Lossy
Delay relative to video     : -23 ms
Stream size                 : 78.4 MiB (5%)
Title                       : DD2.0 Original
Language                    : English
Service kind                : Complete Main
Default                     : No
Forced                      : No

Скриншоты:




Время раздачи: 24/7 (до появления первых 3-5 скачавших)
Не забывайте говорить Спасибо. Не уходите с раздачи!   
Торрент: Зарегистрирован [12 авг 2017, 09:56]
Статус:
Проверен
 
.torrent скачан: 0 раз
Хэш: 351a12a29b5826722a7529ae73ca412281bcbdc1
Размер: 13.31 ГБ (14 289 120 090 байт)
   Стать Автором раздачи
   
Цитата

Вернуться в Мистер Мерседес / Mr. Mercedes

Кто сейчас на конференции

Сейчас эту тему просматривают: нет зарегистрированных пользователей и гости: 1