Последний корабль / The Last Ship (2017) HDTVRip [H.264/1080p-LQ] (сезон 4, серии 1-10 из 10) OmskBird [AD]

 Статистика раздачи 
Размер: 30.38 ГБ   |  Зарегистрирован: 22 авг 2017, 20:03   |   .torrent скачан: 0 раз
Сидеров: 2  [ 0 байт/сек ]     Личеров: 1  [ 0 байт/сек ]  
  
Аватара пользователя
Главный редактор
Главный редактор
Я на сайте
 
Раздал: 58.72 ТБ
Скачал: 3.56 ТБ
Ратио: 16.895
Сообщения: 204428
Стаж: 8 лет 4 месяца 25 дней
Откуда: Санкт-Петербург

Последний корабль / The Last Ship (2017) HDTVRip [H.264/1080p-LQ] (сезон 4, серии 1-10 из 10) OmskBird

Производство: США
Жанр: боевик, драма, фантастика, триллер

Режиссер: Джек Бендер
Актеры: Рона Митра, Эрик Дэйн, Адам Болдуин, Михаэлла МакМанус, Трэвис Ван Винкл, Чарльз Парнелл, Кристина Элмор, Джоко Симс, Джон Пайпер-Фергюсон и др.

Описание:
Глобальная пандемия уничтожает восемьдесят процентов населения планеты. Военный эсминец Соединенных Штатов отправляется в долгое путешествие с единственной задачей — выживать ровно столько, сколько потребуется для создания вакцины. И таким образом спасти человечество от вымирания.

http://www.imdb.com/title/tt2402207/?ref_=plg_rt_1

Релиз от: OmskBird

Продолжительность: ~00:42:00 серия
Качество видео: HDTVRip
Перевод: Многоголосый закадровый, профессиональный - OmskBird
Субтитры: отсутствуют
Реклама: присутствуют аудио вставки рекламы

Видео: AVC/H.264, 1920x1078 (16:9), ~8300 kbps
Аудио #1: AC3, 6 ch, 384 kbps - русский, многоголосый закадровый
Аудио #2: AC3, 6 ch, 384 kbps - английский
Код: Выделить всё
General
Unique ID                                : 223363988758949195809641561980458795511 (0xA80A56E5DBCB2F01B9F340172E8881F7)
Complete name                            : G:\Films\The.Last.Ship.S04.1080p.HDTV.OmskBird\The.Last.Ship.S04E01.1080p.HDTV.OmskBird.mkv
Format                                   : Matroska
Format version                           : Version 4 / Version 2
File size                                : 2.68 GiB
Duration                                 : 42mn 17s
Overall bit rate                         : 9 067 Kbps
Encoded date                             : UTC 2017-08-22 16:05:36
Writing application                      : mkvmerge v15.0.0 ('Duel with the Devil') 64-bit
Writing library                          : libebml v1.3.5 + libmatroska v1.4.5
Cover                                    : Yes
Attachments                              : small_cover.jpg / small_cover_land.jpg / cover.jpg / cover_land.jpg

Video
ID                                       : 1
Format                                   : AVC
Format/Info                              : Advanced Video Codec
Format profile                           : [url=http://nnmclub.to/mailto:High@L4.1]High@L4.1[/url]
Format settings, CABAC                   : Yes
Format settings, ReFrames                : 4 frames
Codec ID                                 : V_MPEG4/ISO/AVC
Duration                                 : 42mn 17s
Bit rate                                 : 8 296 Kbps
Width                                    : 1 920 pixels
Height                                   : 1 078 pixels
Display aspect ratio                     : 16:9
Frame rate mode                          : Constant
Frame rate                               : 23.976 (24000/1001) fps
Color space                              : YUV
Chroma subsampling                       : 4:2:0
Bit depth                                : 8 bits
Scan type                                : Progressive
Bits/(Pixel*Frame)                       : 0.167
Stream size                              : 2.45 GiB (92%)
Writing library                          : x264 core 152 r2851 ba24899
Encoding settings                        : cabac=1 / ref=4 / deblock=1:-2:-2 / analyse=0x3:0x113 / me=umh / subme=11 / psy=1 / psy_rd=1.00:0.00 / mixed_ref=1 / me_range=32 / chroma_me=1 / trellis=2 / 8x8dct=1 / cqm=0 / deadzone=21,11 / fast_pskip=0 / chroma_qp_offset=-2 / threads=10 / lookahead_threads=1 / sliced_threads=0 / nr=0 / decimate=1 / interlaced=0 / bluray_compat=0 / constrained_intra=0 / bframes=5 / b_pyramid=2 / b_adapt=1 / b_bias=0 / direct=3 / weightb=1 / open_gop=0 / weightp=2 / keyint=250 / keyint_min=23 / scenecut=40 / intra_refresh=0 / rc_lookahead=50 / rc=crf / mbtree=1 / crf=17.0 / qcomp=0.60 / qpmin=0 / qpmax=69 / qpstep=4 / ip_ratio=1.40 / aq=1:1.00
Language                                 : English
Default                                  : No
Forced                                   : No

Audio #1
ID                                       : 2
Format                                   : AC-3
Format/Info                              : Audio Coding 3
Mode extension                           : CM (complete main)
Format settings, Endianness              : Big
Codec ID                                 : A_AC3
Duration                                 : 42mn 16s
Bit rate mode                            : Constant
Bit rate                                 : 384 Kbps
Channel(s)                               : 6 channels
Channel positions                        : Front: L C R, Side: L R, LFE
Sampling rate                            : 48.0 KHz
Frame rate                               : 31.250 fps (1536 spf)
Compression mode                         : Lossy
Stream size                              : 116 MiB (4%)
Title                                    : OmskBird 5.1
Language                                 : Russian
Default                                  : Yes
Forced                                   : No

Audio #2
ID                                       : 3
Format                                   : AC-3
Format/Info                              : Audio Coding 3
Mode extension                           : CM (complete main)
Format settings, Endianness              : Big
Codec ID                                 : A_AC3
Duration                                 : 42mn 16s
Bit rate mode                            : Constant
Bit rate                                 : 384 Kbps
Channel(s)                               : 6 channels
Channel positions                        : Front: L C R, Side: L R, LFE
Sampling rate                            : 48.0 KHz
Frame rate                               : 31.250 fps (1536 spf)
Compression mode                         : Lossy
Stream size                              : 116 MiB (4%)
Title                                    : eng
Language                                 : English
Default                                  : No
Forced                                   : No

01. In Medias Res
02. The Pillars of Hercules
03. Bread & Circuses
04. Nostos
05. Allegiance
06. Tempest
07. Feast
08. Somos la Sangre
09. Detect, Deceive, Destroy
10. Endgame
Релиз-группа: OmskBird
Роли озвучивали: Павел Ярощик, Константин Погодаев, Алексей Гнеушев, Ирина Воронова
Перевод: Егор Ярославцев
Звукорежиссер: Павел Квентов
Постер: Ксения Просветова

Скриншоты:




Время раздачи: 24/7 (круглосуточно) (до появления первых 3-5 скачавших)
Не забывайте говорить Спасибо. Не уходите с раздачи!   
Торрент: Зарегистрирован [22 авг 2017, 20:03] Для скачивания .torrent
необходима регистрация
Или скачать с помощью
MediaGet
Статус:
Проверен
 
.torrent скачан: 0 раз
Хэш: a1e0a8630add6ff7f8af6b42b2d320cc0f51ae74
Размер: 30.38 ГБ (32 623 004 690 байт)
   Стать Автором раздачи
   
Цитата

Вернуться в Последний корабль / The Last Ship

Кто сейчас на конференции

Сейчас эту тему просматривают: нет зарегистрированных пользователей и гости: 1