Форс-мажоры / Костюмы в законе / Suits (2013-2014) WEB-DLRip (Сезон 3, Серия 1-16 из 16) NewStudio

 Статистика раздачи 
Размер: 8.59 ГБ   |  Зарегистрирован: 17 июл 2013, 23:47   |   .torrent скачан: 0 раз
Сидеров: 4  [ 0 байт/сек ]     Личеров: 0  [ 0 байт/сек ]  
  
Аватара пользователя
Главный редактор
Главный редактор
 
Раздал: 83.18 ТБ
Скачал: 3.76 ТБ
Ратио: 22.543
Сообщения: 213816
Стаж: 8 лет 8 месяцев 24 дня
Откуда: Санкт-Петербург

Форс-мажоры / Костюмы в законе / Suits (2013-2014) WEB-DLRip (Сезон 3, Серия 1-16 из 16) [NewStudio] (Обновляемая)

Год выпуска: 2013
Жанр: Драма, Комедия

Перевод: Двухголосый закадровый, профессиональный - NewStudio
Автор перевода: Ptyza
Озвучка: Константин Погодаев, Анна Тух (Бяко Рекордс)

http://www.imdb.com/title/tt1632701/?ref_=plg_rt_1

Режиссер: Кевин Брэй, Джон Скотт
Актеры: Патрик Дж. Адамс, Гэбриел Махт, Меган Маркл, Джина Торрес, Рик Хоффман

Описание фильма:
В центре сюжета замечательный, но немотивированный молодой человек, так и не закончивший учебу в колледже. У него есть все необходимые качества, чтобы стать хорошим адвокатом, кроме диплома. Но благодаря знаниям законов улицы и напористым, не всегда честным действиям его нанимает влиятельная юридическая фирма из Манхэттена.

Продолжительность: 00:48:03
Качество видео: WEB-DLRip

Видеокодек: Xvid
Битрейт видео: 1330 Кбит/сек
Размер кадра: 720x400
Аудиокодек: MP3
Битрейт аудио #1 (Rus): 128 Кбит/сек, 2 ch
Битрейт аудио #2 (Eng): 128 Кбит/сек, 2 ch

Сэмпл:Скачать
Формат : AVI
Формат/Информация : Audio Video Interleave
Размер файла : 550 Мбайт
Продолжительность : 00:48:03
Программа кодирования : VirtualDubMod 1.5.10.2 (build 2540/release)
Библиотека кодирования : VirtualDubMod build 2540/release

Видео
Идентификатор : 0
Формат : MPEG-4 Visual
Профиль формата : Advanced Simple@L5
Параметр BVOP формата : 2
Параметр QPel формата : Нет
Параметр GMC формата : Без точки перехода
Параметр матрицы формата : Default (MPEG)
Идентификатор кодека : XVID
Идентификатор кодека/Подсказка : XviD
Продолжительность : 00:48:03
Битрейт : 1330 Кбит/сек
Ширина : 720 пикселей
Высота : 400 пикселей
Соотношение сторон : 16:9
Частота кадров : 23,976 кадра/сек
Цветовое пространство : YUV
Субдискретизация насыщенности : 4:2:0
Битовая глубина : 8 бит
Тип развёртки : Прогрессивная
Метод сжатия : С потерями
Бит/(Пиксели*Кадры) : 0.193
Размер потока : 457 Мбайт (83%)
Библиотека кодирования : XviD 64

Аудио #1
Идентификатор : 1
Формат : MPEG Audio
Версия формата : Version 1
Профиль формата : Layer 3
Режим : Joint stereo
Расширение режима : MS Stereo
Идентификатор кодека : 55
Идентификатор кодека/Подсказка : MP3
Продолжительность : 48 м.
Вид битрейта : Постоянный
Битрейт : 128 Кбит/сек
Каналы : 2 канала
Частота : 48,0 КГц
Метод сжатия : С потерями
Размер потока : 44,0 Мбайт (8%)
Выравнивание : Соединение по промежуткам
Продолжительность промежутка : 42 мс. (1,00 видеокадр)
Время предзагрузки промежутка : 504 мс.

Аудио #2
Идентификатор : 2
Формат : MPEG Audio
Версия формата : Version 1
Профиль формата : Layer 3
Режим : Joint stereo
Идентификатор кодека : 55
Идентификатор кодека/Подсказка : MP3
Продолжительность : 48 м.
Вид битрейта : Постоянный
Битрейт : 128 Кбит/сек
Каналы : 2 канала
Частота : 48,0 КГц
Метод сжатия : С потерями
Размер потока : 44,0 Мбайт (8%)
Выравнивание : Соединение по промежуткам
Продолжительность промежутка : 42 мс. (1,00 видеокадр)
Время предзагрузки промежутка : 504 мс.
Библиотека кодирования : LAME3.99r
Настройки программы : -m j -V 4 -q 2 -lowpass 17 -b 128
1.The Arrangement / Соглашение
2.I Want You to Want Me
3. Unfinished Business - Незавершенные дела
4. Conflict of Interest - Конфликт Интересов
5. Shadow Of A Doubt - Тень сомнения
6. The Other Time - В другой раз
7. She's Mine - Она моя
8. End Game
9. Bad Faith - Недобросовестность
10. Stay - Останься
11. Buried Secrets - Зарытые секреты
12. Yesterday's Gone - Вчерашний день позади
13. Moot Point - Спорный вопрос
14. Heartburn - Ревность
15. Know When to Fold 'Em - Ты знаешь, когда их сделать
16. No Way Out
Скриншоты:



Время раздачи: 24/7 (по возможности) - до 8 сидов
Не забывайте говорить Спасибо. Не уходите с раздачи!   
Торрент: Зарегистрирован [17 июл 2013, 23:47]
Статус:
Проверен
 
.torrent скачан: 0 раз
Хэш: a2b712b63f88793f1eb0c14cd806159b38fd5f6d
Размер: 8.59 ГБ (9 227 247 616 байт)
   Стать Автором раздачи
   
Цитата

Вернуться в Форс-мажоры / Suits

Кто сейчас на конференции

Сейчас эту тему просматривают: нет зарегистрированных пользователей и гости: 1