Форс-мажоры / Костюмы в законе / Suits (2016) WEB-DLRip (сезон 6, серии 1-16 из 16) NewStudio

 Статистика раздачи 
Размер: 8.72 ГБ   |  Зарегистрирован: 14 июл 2016, 21:37   |   .torrent скачан: 19 раз
Сидеров: 1  [ 0 байт/сек ]     Личеров: 0  [ 0 байт/сек ]  
  
Аватара пользователя
Главный редактор
Главный редактор
 
Раздал: 83.18 ТБ
Скачал: 3.76 ТБ
Ратио: 22.543
Сообщения: 213816
Стаж: 8 лет 8 месяцев 24 дня
Откуда: Санкт-Петербург

Форс-мажоры / Костюмы в законе / Suits (2016) WEB-DLRip (сезон 6, серии 1-16 из 16)

«Two Lawyers. One Degree»
Производство: США / Hypnotic, Universal Cable Productions, Dutch Oven
Жанр: драма, комедия

Режиссер: Антон Кроппер, Кевин Брэй, Майкл Смит
Актеры: Гэбриел Махт, Патрик Джей Адамс, Джина Торрес, Рик Хоффман, Меган Маркл, Сара Рафферти, Аманда Шулл, Макс Топплин, Дэвид Костабайл, Д.Б. Вудсайд и др.

Описание:
«Форс-мажоры» — сериал о тандеме профессионального юриста Харви Спектра и студента-лжеца Майка Росса.
Майк и Харви – это команда победителей. Хотя Майк и гений, ему все еще надо много чего узнать о законах. Харви кажется бесстрастной и хладнокровной акулой бизнеса, однако, сочувствие клиентам и озабоченность их делами Майка, поможет Харви вспомнить, зачем он в свое время пришел в юриспруденцию. Другими союзниками Майка в фирме станет лучший помощник юриста в компании Рейчел и здравомыслящая ассистентка Харви Донна. Доказывая, что они неутомимая парочка и бесценны для фирмы, Майку и Харви приходится хранить свою тайну от всех, в том числе и от начальника Харви, Джессики и заклятого врага Харви Луиса, который, кажется, поставил себе целью сделать жизнь Майкла невыносимой.



Возраст: 16+ (зрителям, достигшим 16 лет)

Продолжительность: ~00:42:00 серия
Качество видео: WEB-DLRip
Перевод: Двухголосый закадровый, профессиональный - NewStudio
Автор перевода: Ptyza

Видео: XviD, 720x400 (16:9), ~1844 Kbps
Аудио Rus: MP3, 48,0 kHz, 2 ch, 128 kbps — двухголосый закадровый
Аудио Eng: MP3, 48,0 kHz, 2 ch, 128 kbps — оригинал
Код: выделить все
Общее
Полное имя                               : D:\Форс-мажоры (сезон 6) Suits (2016) WEB-DLRip - NewStudio\Suits.S06E01.WEBDLRip.Rus.Eng.DV.NewStudio.avi
Формат                                   : AVI
Формат/Информация                        : Audio Video Interleave
Размер файла                             : 634 Мбайт
Продолжительность                        : 41 м.
Общий поток                              : 2114 Кбит/сек
Название фильма                          : Suits.S06E01.WEBDLRip.Rus.Eng.DV.NewStudio / NNM-Club
Программа кодирования                    : VirtualDubModRus 1.5.10.2 (build 2542/release)
Библиотека кодирования                   : VirtualDubMod build 2542/release

Видео
Идентификатор                            : 0
Формат                                   : MPEG-4 Visual
Профиль формата                          : Advanced Simple@L5
Параметр BVOP формата                    : 2
Параметр QPel формата                    : Да
Параметр GMC формата                     : Без точки перехода
Параметр матрицы формата                 : Default (MPEG)
Режим смешивания                         : Сжатый битовый поток
Идентификатор кодека                     : XVID
Идентификатор кодека/Подсказка           : XviD
Продолжительность                        : 41 м.
Битрейт                                  : 1844 Кбит/сек
Ширина                                   : 720 пикселей
Высота                                   : 400 пикселей
Соотношение сторон                       : 16:9
Частота кадров                           : 23,976 (23976/1000) кадра/сек
Цветовое пространство                    : YUV
Субдискретизация насыщенности            : 4:2:0
Битовая глубина                          : 8 бит
Тип развёртки                            : Прогрессивная
Метод сжатия                             : С потерями
Бит/(Пиксели*Кадры)                      : 0.267
Размер потока                            : 553 Мбайт (87%)
Библиотека кодирования                   : XviD 73

Аудио #1
Идентификатор                            : 1
Формат                                   : MPEG Audio
Версия формата                           : Version 1
Профиль формата                          : Layer 3
Режим                                    : Joint stereo
Расширение режима                        : MS Stereo
Идентификатор кодека                     : 55
Идентификатор кодека/Подсказка           : MP3
Продолжительность                        : 41 м.
Вид битрейта                             : Постоянный
Битрейт                                  : 128 Кбит/сек
Каналы                                   : 2 канала
Частота                                  : 48,0 КГц
Метод сжатия                             : С потерями
Размер потока                            : 38,4 Мбайт (6%)
Выравнивание                             : Соединение по промежуткам
Продолжительность промежутка             : 42  мс. (1,00 видеокадр)
Время предзагрузки промежутка            : 504  мс.

Аудио #2
Идентификатор                            : 2
Формат                                   : MPEG Audio
Версия формата                           : Version 1
Профиль формата                          : Layer 3
Режим                                    : Joint stereo
Расширение режима                        : MS Stereo
Идентификатор кодека                     : 55
Идентификатор кодека/Подсказка           : MP3
Продолжительность                        : 41 м.
Вид битрейта                             : Постоянный
Битрейт                                  : 128 Кбит/сек
Каналы                                   : 2 канала
Частота                                  : 48,0 КГц
Метод сжатия                             : С потерями
Размер потока                            : 38,4 Мбайт (6%)
Выравнивание                             : Соединение по промежуткам
Продолжительность промежутка             : 42  мс. (1,00 видеокадр)
Время предзагрузки промежутка            : 504  мс.
Библиотека кодирования                   : LAME3.99.5ЄЄЄЄЄЄЄЄЄЄ

01. To Trouble / За беду
02. Accounts Payable / Счета к оплате
03. Back on the Map / Снова на карте
04. Turn / Поворот
05. Trust / Доверие
06. Spain / Испания
07. Shake the Trees / Перетрясти деревья
08. Borrowed Time / Взаймы у времени
09. The Hand That Feeds You / Рука, которая тебя кормит
10. P. S. L. / П. С. Л.
11. She's Gone / Больше ее здесь нет
12. The Painting / Картина
13. Teeth, Nose, Teeth / Зубы, нос, зубы
14. Admission of Guilt / Признание вины
15. Quid Pro Quo / Кви про кво
16. Character and Fitness / Профессиональная пригодность

Скриншоты:



Время раздачи: 24/7 (до появления первых 3-5 скачавших)
Не забывайте говорить Спасибо. Не уходите с раздачи!   
Торрент: Зарегистрирован [14 июл 2016, 21:37]
Статус:
Проверен
 
.torrent скачан: 19 раз
Хэш: 0578fc67a786ee59681d461615c1cda23c5960fa
Размер: 8.72 ГБ (9 364 545 536 байт)
   Стать Автором раздачи
   
Цитата

Вернуться в Форс-мажоры / Suits

Кто сейчас на конференции

Сейчас эту тему просматривают: нет зарегистрированных пользователей и гости: 1