Форс-мажоры / Костюмы в законе / Suits (2016) WEB-DL [H.264/1080p-LQ] (сезон 6, серии 1-16 из 16) NewStudio

 Статистика раздачи 
Размер: 29.25 ГБ   |  Зарегистрирован: 15 июл 2016, 01:49   |   .torrent скачан: 0 раз
Сидеров: 0  [ 0 байт/сек ]     Личеров: 0  [ 0 байт/сек ]  
  
Аватара пользователя
Главный редактор
Главный редактор
 
Раздал: 83.18 ТБ
Скачал: 3.76 ТБ
Ратио: 22.541
Сообщения: 214001
Стаж: 8 лет 8 месяцев 26 дней
Откуда: Санкт-Петербург

Форс-мажоры / Костюмы в законе / Suits (2016) WEB-DL [H.264/1080p-LQ] (сезон 6, серии 1-16 из 16)

«Two Lawyers. One Degree»
Производство: США / Hypnotic, Universal Cable Productions, Dutch Oven
Жанр: драма, комедия

Режиссер: Антон Кроппер, Кевин Брэй, Майкл Смит
Актеры: Гэбриел Махт, Патрик Джей Адамс, Джина Торрес, Рик Хоффман, Меган Маркл, Сара Рафферти, Аманда Шулл, Макс Топплин, Дэвид Костабайл, Д.Б. Вудсайд и др.

Описание:
«Форс-мажоры» — сериал о тандеме профессионального юриста Харви Спектра и студента-лжеца Майка Росса.
Майк и Харви – это команда победителей. Хотя Майк и гений, ему все еще надо много чего узнать о законах. Харви кажется бесстрастной и хладнокровной акулой бизнеса, однако, сочувствие клиентам и озабоченность их делами Майка, поможет Харви вспомнить, зачем он в свое время пришел в юриспруденцию. Другими союзниками Майка в фирме станет лучший помощник юриста в компании Рейчел и здравомыслящая ассистентка Харви Донна. Доказывая, что они неутомимая парочка и бесценны для фирмы, Майку и Харви приходится хранить свою тайну от всех, в том числе и от начальника Харви, Джессики и заклятого врага Харви Луиса, который, кажется, поставил себе целью сделать жизнь Майкла невыносимой.



Возраст: 16+ (зрителям, достигшим 16 лет)

Продолжительность: ~00:42:00 серия
Качество видео: WEB-DL
Перевод: Двухголосый закадровый, профессиональный - NewStudio
Автор перевода: Ptyza

Видео: H.264/AVC, 1920x1080 (16:9), ~4775 kbps
Аудио Rus: AC-3, 48,0 kHz, 6 ch, 384 kbps — двухголосый закадровый
Аудио Eng: AC-3, 48,0 kHz, 6 ch, 384 kbps — оригинал
Код: выделить все
Общее
Уникальный идентификатор                 : 240213165454802907256764874210321221084 (0xB4B75F7258CDA7D0BFA36380EAEDC5DC)
Полное имя                               : D:\Форс-мажоры (сезон 6) Suits (2016) WEB-DL 1080p - NewStudio\Suits.s06e01.WEBDL.1080p.NewStudio.TV (1).mkv
Формат                                   : Matroska
Версия формата                           : Version 4 / Version 2
Размер файла                             : 1,63 Гбайт
Продолжительность                        : 41 м.
Общий поток                              : 5545 Кбит/сек
Название фильма                          : Suits.S06E01.WEBDL.1080p.Rus.Eng.DV.NewStudio / NNM-Club
Дата кодирования                         : UTC 2016-07-14 22:35:21
Программа кодирования                    : mkvmerge v8.2.0 ('World of Adventure') 64bit
Библиотека кодирования                   : libebml v1.3.1 + libmatroska v1.4.2
Обложка                                  : Yes
Attachments                              : Cover

Видео
Идентификатор                            : 1
Формат                                   : AVC
Формат/Информация                        : Advanced Video Codec
Профиль формата                          : High@L4
Параметр CABAC формата                   : Да
Параметр ReFrames формата                : 4 кадра
Идентификатор кодека                     : V_MPEG4/ISO/AVC
Продолжительность                        : 41 м.
Битрейт                                  : 4775 Кбит/сек
Ширина                                   : 1920 пикселей
Высота                                   : 1080 пикселей
Соотношение сторон                       : 16:9
Режим частоты кадров                     : Постоянный
Частота кадров                           : 23,976 (24000/1001) кадра/сек
Цветовое пространство                    : YUV
Субдискретизация насыщенности            : 4:2:0
Битовая глубина                          : 8 бит
Тип развёртки                            : Прогрессивная
Бит/(Пиксели*Кадры)                      : 0.096
Размер потока                            : 1,40 Гбайт (86%)
Язык                                     : English
Default                                  : Да
Forced                                   : Нет
Цветовой диапазон                        : Limited
Основные цвета                           : BT.709
Характеристики трансфера                 : BT.709
Коэффициенты матрицы                     : BT.709

Аудио #1
Идентификатор                            : 2
Формат                                   : AC-3
Формат/Информация                        : Audio Coding 3
Расширение режима                        : CM (complete main)
Параметр Endianness формата              : Big
Идентификатор кодека                     : A_AC3
Продолжительность                        : 41 м.
Вид битрейта                             : Постоянный
Битрейт                                  : 384 Кбит/сек
Каналы                                   : 6 каналов
Расположение каналов                     : Front: L C R, Side: L R, LFE
Частота                                  : 48,0 КГц
Частота кадров                           : 31,250 кадров/сек (1536 spf)
Метод сжатия                             : С потерями
Размер потока                            : 115 Мбайт (7%)
Заголовок                                : NewStudio
Язык                                     : Russian
Default                                  : Да
Forced                                   : Нет

Аудио #2
Идентификатор                            : 3
Формат                                   : AC-3
Формат/Информация                        : Audio Coding 3
Расширение режима                        : CM (complete main)
Параметр Endianness формата              : Big
Идентификатор кодека                     : A_AC3
Продолжительность                        : 41 м.
Вид битрейта                             : Постоянный
Битрейт                                  : 384 Кбит/сек
Каналы                                   : 6 каналов
Расположение каналов                     : Front: L C R, Side: L R, LFE
Частота                                  : 48,0 КГц
Частота кадров                           : 31,250 кадров/сек (1536 spf)
Метод сжатия                             : С потерями
Размер потока                            : 115 Мбайт (7%)
Язык                                     : English
Default                                  : Нет
Forced                                   : Нет

01. To Trouble / За беду
02. Accounts Payable / Счета к оплате
03. Back on the Map / Снова на карте
04. Turn / Поворот
05. Trust / Доверие
06. Spain / Испания
07. Shake the Trees / Перетрясти деревья
08. Borrowed Time / Взаймы у времени
09. The Hand That Feeds You / Рука, которая тебя кормит
10. P. S. L. / П. С. Л.
11. She's Gone / Больше ее здесь нет
12. The Painting / Картина
13. Teeth, Nose, Teeth / Зубы, нос, зубы
14. Admission of Guilt / Признание вины
15. Quid Pro Quo / Кви про кво
16. Character and Fitness / Профессиональная пригодность

Скриншоты:



Время раздачи: 24/7 (до появления первых 3-5 скачавших)
Не забывайте говорить Спасибо. Не уходите с раздачи!   
Торрент: Зарегистрирован [15 июл 2016, 01:49]
Статус:
Проверен
 
.torrent скачан: 0 раз
Хэш: e46d043a211f725a77f675c5861eda5bbd6090c4
Размер: 29.25 ГБ (31 409 747 889 байт)
   Стать Автором раздачи
   
Цитата

Вернуться в Форс-мажоры / Suits

Кто сейчас на конференции

Сейчас эту тему просматривают: нет зарегистрированных пользователей и гости: 1