Форс-мажоры / Костюмы в законе / Suits (2014) WEB-DL [H.264/720p-LQ] (сезон 4, серии 1-16 из 16) NewStudio

 Статистика раздачи 
Размер: 23.17 ГБ   |  Зарегистрирован: 24 июн 2014, 22:38   |   .torrent скачан: 0 раз
Сидеров: 0  [ 0 байт/сек ]     Личеров: 0  [ 0 байт/сек ]  
  
Аватара пользователя
Главный редактор
Главный редактор
 
Раздал: 83.18 ТБ
Скачал: 3.76 ТБ
Ратио: 22.548
Сообщения: 213311
Стаж: 8 лет 8 месяцев 21 день
Откуда: Санкт-Петербург

Форс-мажоры / Костюмы в законе / Suits

Производство: США
Жанр: драма, комедия

Перевод: Двухголосый закадровый, профессиональный - NewStudio

http://www.imdb.com/title/tt1632701/?ref_=plg_rt_1

Режиссер: Кевин Брэй, Майкл Смит, Антон Кроппер
Актеры: Гэбриел Махт, Патрик Дж. Адамс, Рик Хоффман, Меган Маркл, Сара Рафферти, Джина Торрес, Ванесса Рэй, Том Липински, Макс Топплин, Ребекка Скул, Джулиан ДеЗотти, Бен Льюис и др.

Описание фильма:
Убегая после неудачной попытки сбыта наркотиков, юрист-самоучка Росс, выдающий себя за выпускника Гарварда, попадает на собеседование к одному из лучших адвокатов по сделкам Нью-Йорка Харви Спектру. Устав от скучных соискателей, мечтающих «верой и правдой служить букве закона», Харви рискует и нанимает Майка: у парня врожденный талант и фотографическая память. Так рождается один из самых неоднозначных, но, в то же время, и самых блестящих тандемов законников на Манхэттене.

Продолжительность: ~00:43:00 серия
Качество видео: WEB-DL 720р
СЭМПЛ

Видеокодек: AVC (High@L3.1)
Битрейт видео: ~3 953 Kbps
Размер кадра: 1280x720 (16:9)
Аудио #1 Rus: AC-3, 48.0 KHz, 6 ch, 384 Kbps, CBR (двухголосый закадровый)
Аудио #2 Eng: AC-3, 48.0 KHz, 6 ch, 384 Kbps, CBR (оригинал)
Общее
Уникальный идентификатор : 230224630523273356066650929378406134471 (0xAD33A6A7052BBA1EB2CDE7BD0D0B72C7)
Полное имя : E:\СЕРИАЛЫ\Форс-мажоры\Suits.s04\Suits.s04e01.WEBDL.720p.NewStudio.TV.mkv
Формат : Matroska
Версия формата : Version 4 / Version 2
Размер файла : 1,45 Гбайт
Продолжительность : 43 м.
Общий поток : 4817 Кбит/сек
Дата кодирования : UTC 2014-06-24 17:44:25
Программа кодирования : mkvmerge v7.0.0 ('Where We Going') 64bit built on Jun 9 2014 15:16:27
Библиотека кодирования : libebml v1.3.0 + libmatroska v1.4.1
DURATION : 00:43:01.856000000
NUMBER_OF_FRAMES : 80683
NUMBER_OF_BYTES : 123929088
_STATISTICS_WRITING_APP : mkvmerge v7.0.0 ('Where We Going') 64bit built on Jun 9 2014 15:16:27
_STATISTICS_WRITING_DATE_UTC : 2014-06-24 17:44:25
_STATISTICS_TAGS : BPS DURATION NUMBER_OF_FRAMES NUMBER_OF_BYTES

Видео
Идентификатор : 1
Формат : AVC
Формат/Информация : Advanced Video Codec
Профиль формата : High@L3.1
Параметр CABAC формата : Нет
Параметр ReFrames формата : 2 кадра
Идентификатор кодека : V_MPEG4/ISO/AVC
Продолжительность : 43 м.
Битрейт : 3953 Кбит/сек
Ширина : 1280 пикселей
Высота : 720 пикселей
Соотношение сторон : 16:9
Режим частоты кадров : Постоянный
Частота кадров : 23,976 кадра/сек
Цветовое пространство : YUV
Субдискретизация насыщенности : 4:2:0
Битовая глубина : 8 бит
Тип развёртки : Прогрессивная
Бит/(Пиксели*Кадры) : 0.179
Размер потока : 1,19 Гбайт (82%)
Язык : English
Default : Да
Forced : Нет
Основные цвета : BT.709
Характеристики трансфера : BT.709
Коэффициенты матрицы : BT.709

Аудио #1
Идентификатор : 2
Формат : AC-3
Формат/Информация : Audio Coding 3
Расширение режима : CM (complete main)
Параметр Endianness формата : Big
Идентификатор кодека : A_AC3
Продолжительность : 43 м.
Вид битрейта : Постоянный
Битрейт : 384 Кбит/сек
Каналы : 6 каналов
Расположение каналов : Front: L C R, Side: L R, LFE
Частота : 48,0 КГц
Битовая глубина : 16 бит
Метод сжатия : С потерями
Размер потока : 118 Мбайт (8%)
Язык : Russian
Default : Да
Forced : Нет

Аудио #2
Идентификатор : 3
Формат : AC-3
Формат/Информация : Audio Coding 3
Расширение режима : CM (complete main)
Параметр Endianness формата : Big
Идентификатор кодека : A_AC3
Продолжительность : 43 м.
Вид битрейта : Постоянный
Битрейт : 384 Кбит/сек
Каналы : 6 каналов
Расположение каналов : Front: L C R, Side: L R, LFE
Частота : 48,0 КГц
Битовая глубина : 16 бит
Метод сжатия : С потерями
Размер потока : 118 Мбайт (8%)
Язык : English
Default : Нет
Forced : Нет

Текст
Идентификатор : 4
Формат : ASS
Идентификатор кодека : S_TEXT/ASS
Идентификатор кодека/Информация : Advanced Sub Station Alpha
Метод сжатия : Без потерь
Язык : Russian
Default : Да
Forced : Да
01. One-Two-Three Go... / Раз,два, три, погнали
02. Breakfast, Lunch and Dinner / Завтрак, обед и ужин
03. Two in the Knees / Два выстрела по коленям
04. Leveraged / В долгу
05. Pound of Flesh / Фунт плоти
06. Litt the Hell Up / В стиле Литта
07. We're Done / Все кончено
08. Exposure / Обнародование
09. Gone
10. This Is Rome / Здесь Рим
11. Enough Is Enough
12. Respect
13. Fork in the Road
14. Derailed / Мост в завтра
15. Know When to Fold 'Em
16. Not Just a Pretty Face
Скринштоы:




Время раздачи: 24/7, до первых пяти скачавших
Не забывайте говорить Спасибо. Не уходите с раздачи!   
Торрент: Зарегистрирован [24 июн 2014, 22:38]
Статус:
Проверен
 
.torrent скачан: 0 раз
Хэш: 9a8cd232ebc14b878c4552c1db1fac8f6ebf53be
Размер: 23.17 ГБ (24 874 537 569 байт)
   Стать Автором раздачи
   
Цитата

Вернуться в Форс-мажоры / Suits

Кто сейчас на конференции

Сейчас эту тему просматривают: нет зарегистрированных пользователей и гости: 1