Форс-мажоры / Костюмы в законе / Suits (2015) WEB-DL [H.264/720p-LQ] (сезон 5, серии 1-16 из 16) (NewStudio)

 Статистика раздачи 
Размер: 22.96 ГБ   |  Зарегистрирован: 27 июн 2015, 10:35   |   .torrent скачан: 0 раз
Сидеров: 0  [ 0 байт/сек ]     Личеров: 0  [ 0 байт/сек ]  
  
Аватара пользователя
Главный редактор
Главный редактор
 
Раздал: 83.18 ТБ
Скачал: 3.76 ТБ
Ратио: 22.543
Сообщения: 213816
Стаж: 8 лет 8 месяцев 24 дня
Откуда: Санкт-Петербург

Форс-мажоры / Костюмы в законе / Suits (2015) WEB-DL [H.264/720p-LQ] (сезон 5, серии 1-16 из 16) (NewStudio)

«Two Lawyers. One Degree»
Производство: США
Жанр: драма, комедия

Режиссер: Антон Кроппер, Кевин Брэй, Майкл Смит
Актеры: Гэбриел Махт, Патрик Джей Адамс, Джина Торрес, Рик Хоффман, Меган Маркл, Сара Рафферти, Аманда Шулл, Макс Топплин, Д.Б. Вудсайд, Дэвид Костабайл и др.

Описание:
В центре сюжета замечательный, но немотивированный молодой человек, так и не закончивший учёбу в колледже. У него есть все необходимые качества, чтобы стать хорошим адвокатом, кроме диплома. Но благодаря знаниям законов улицы и напористым, не всегда честным действиям его нанимает влиятельная юридическая фирма из Манхэттена.

http://www.imdb.com/title/tt1632701/?ref_=plg_rt_1

Релиз от: NewStudio
Продолжительность: ~ 00:42:00 серия
Качество видео: WEB-DL
Перевод: Профессиональный двухголосый закадровый - NewStudio
Автор перевода: Ptyza
Реклама: присутствуют голосовые вставки рекламы

Формат: MKV
Видео: AVC/H.264, 1280x720 (16:9), 23.976 fps, ~3802 Kbps, ~0.172 bit/pixel
Аудио Rus: AC3, 384 kbps, 6 ch, 48 kHz
Аудио Eng: AC3, 384 kbps, 6 ch, 48 kHz
Код: выделить всеОбщее
Suits - Форс-мажоры. Сезон 5. NewStudio. 720p\Suits.s05e01.WEB-DL.720p.NewStudio.mkv
Формат                                   : Matroska
Версия формата                           : Version 4 / Version 2
Размер файла                             : 1,37 Гбайт
Продолжительность                        : 42 м.
Общий поток                              : 4663 Кбит/сек
Дата кодирования                         : UTC 2015-06-27 06:59:21
Программа кодирования                    : mkvmerge v6.9.1 ('Blue Panther') 64bit built on Apr 18 2014 18:23:38
Библиотека кодирования                   : libebml v1.3.0 + libmatroska v1.4.1

Видео
Идентификатор                            : 1
Формат                                   : AVC
Формат/Информация                        : Advanced Video Codec
Профиль формата                          : High@L3.1
Параметр CABAC формата                   : Нет
Параметр ReFrames формата                : 2 кадра
Идентификатор кодека                     : V_MPEG4/ISO/AVC
Продолжительность                        : 42 м.
Битрейт                                  : 3802 Кбит/сек
Ширина                                   : 1280 пикселей
Высота                                   : 720 пикселей
Соотношение сторон                       : 16:9
Режим частоты кадров                     : Постоянный
Частота кадров                           : 23,976 кадра/сек
Цветовое пространство                    : YUV
Субдискретизация насыщенности            : 4:2:0
Битовая глубина                          : 8 бит
Тип развёртки                            : Прогрессивная
Бит/(Пиксели*Кадры)                      : 0.172
Размер потока                            : 1,12 Гбайт (82%)
Язык                                     : English
Default                                  : Да
Forced                                   : Нет
Цветовой диапазон                        : Limited
Основные цвета                           : BT.709
Характеристики трансфера                 : BT.709
Коэффициенты матрицы                     : BT.709

Аудио #1
Идентификатор                            : 2
Формат                                   : AC-3
Формат/Информация                        : Audio Coding 3
Расширение режима                        : CM (complete main)
Параметр Endianness формата              : Big
Идентификатор кодека                     : A_AC3
Продолжительность                        : 42 м.
Вид битрейта                             : Постоянный
Битрейт                                  : 384 Кбит/сек
Каналы                                   : 6 каналов
Расположение каналов                     : Front: L C R, Side: L R, LFE
Частота                                  : 48,0 КГц
Метод сжатия                             : С потерями
Размер потока                            : 116 Мбайт (8%)
Заголовок                                : NewStudio
Язык                                     : Russian
Default                                  : Да
Forced                                   : Нет

Аудио #2
Идентификатор                            : 3
Формат                                   : AC-3
Формат/Информация                        : Audio Coding 3
Расширение режима                        : CM (complete main)
Параметр Endianness формата              : Big
Идентификатор кодека                     : A_AC3
Продолжительность                        : 42 м.
Вид битрейта                             : Постоянный
Битрейт                                  : 384 Кбит/сек
Каналы                                   : 6 каналов
Расположение каналов                     : Front: L C R, Side: L R, LFE
Частота                                  : 48,0 КГц
Метод сжатия                             : С потерями
Размер потока                            : 116 Мбайт (8%)
Язык                                     : English
Default                                  : Нет
Forced                                   : Нет
01. Denial / Отрицание
02. Compensation / Компенсация
03. No Refills / Таблеток больше не будет
04. No Puedo Hacerlo / Ничего не выйдет
05. Toe to Toe / Лицом к лицу
06. Privilege / Конфиденциальность
07. Hitting Home / За живое
08. Mea Culpa / Моя вина
09. Uninvited Guests / Незваные гости
10. Faith / Вера
11. Blowback / Эффект бумеранга
12. Live to Fight / Ещё поборемся
13. God's Green Earth / На свете Божьем
14. Self Defense / Самозащита
15. Tick Tock / Тик-так
16. 25th Hour / Двадцать пятый час
Внимание! Раздача ведётся путём добавления новых серий; при каждом добавлении создаётся новый торрент.
Чтобы начать докачку новой серии, пользователям необходимо сделать следующее:
1. Остановить скачивание;
2. Удалить старый торрент у себя из клиента (старые серии удалять не надо);
3. Скачать новый торрент и запустить его у себя в клиенте вместо старого, при этом указать клиенту путь в старую папку куда и должно происходить скачивание новых серий. Ваш клиент при этом должен произвести хеширование (проверку) старой папки и будет докачивать только те серии, которых у вас ещё нет. Старые серии при этом не удаляются, а продолжают раздаваться! Eсли вы уже удалили старые серии, то предотвратить повторную закачку старых серий можно, отжав галочку в соответствующих местах при запуске нового торрента.

Скриншоты:




Время раздачи: 24/7
Не забывайте говорить Спасибо. Не уходите с раздачи!   
Торрент: Зарегистрирован [27 июн 2015, 10:35]
Статус:
Проверен
 
.torrent скачан: 0 раз
Хэш: 78d99955c65c375735ae3524c12a3ba02324e7d9
Размер: 22.96 ГБ (24 650 364 437 байт)
   Стать Автором раздачи
   
Цитата

Вернуться в Форс-мажоры / Suits

Кто сейчас на конференции

Сейчас эту тему просматривают: нет зарегистрированных пользователей и гости: 1