Банши / Banshee (2016) HDTV [H.264/1080p] (сезон 4, серии 1-8 из 8) Novamedia

 Статистика раздачи 
Размер: 30.59 ГБ   |  Зарегистрирован: 03 апр 2016, 15:49   |   .torrent скачан: 0 раз
Сидеров: 2  [ 0 байт/сек ]     Личеров: 0  [ 0 байт/сек ]  
  
Аватара пользователя
Главный редактор
Главный редактор
 
Раздал: 78.18 ТБ
Скачал: 3.73 ТБ
Ратио: 21.403
Сообщения: 209757
Стаж: 8 лет 7 месяцев 22 дня
Откуда: Санкт-Петербург

Банши / Banshee (2016) HDTV [H.264/1080p] (сезон 4, серии 1-8 из 8)

«Small Town. Big Secrets»
Производство: США / Your Face Goes Here Entertainment, Cinemax
Жанр: боевик, криминал, драма

Режиссер: Оле Кристиан Мадсен, Грег Яйтанс, Лони Перистер
Актеры: Энтони Старр, Ивана Миличевич, Ульрих Томсен, Хун Ли, Фрэнки Фэйзон, Лили Симмонс, Триесте Келли Данн, Рас Блэквелл, Мэтт Сервитто, Деметриус Гросс и др.

Описание:
Лжешерифа Лукаса Худа и его бригаду ждут новые испытания и передряги, которые опять потребуют балансировать по обе стороны закона. А еще в последнем сезоне появляется харизматичный персонаж – сексуальная и поразительно безрассудная криминалистка ФБР, не без греха. Итак, Худ, Кэрри, Проктор и банда возвращаются, чтобы вступить в кульминационную гонку под названием “все или ничего”.

http://www.imdb.com/title/tt2017109/?ref_=plg_rt_1

Продолжительность: ~00:58:00 серия
Качество видео: HDTV 1080p
Перевод: Многоголосый закадровый, профессиональный - Novamedia по заказу Amedia
Вид субтитров: вшитые отключаемые
Язык субтитров: русский, английский

Видео: H.264/AVC, 1920x1080 (16:9), ~10 mb/s
Аудио Rus: AC-3, 48,0 kHz, 6 ch, 384 kb/s — многоголосый закадровый
Аудио Eng: AC-3, 48,0 kHz, 6 ch, 384 kb/s — оригинал
Код: выделить всеОбщее
Уникальный идентификатор                 : 198392126657175860545329522561326840084 (0x9540EF09F9DC943BAC1025F141C0F914)
Полное имя                               : D:\Банши (сезон 4) Banshee (2016) HDTV 1080p - Amedia\Banshee.S04E01.HDTV1080p.Rus.Eng.DV.Amedia.mkv
Формат                                   : Matroska
Версия формата                           : Version 4 / Version 2
Размер файла                             : 4,43 Гбайт
Продолжительность                        : 55 м.
Общий поток                              : 11,5 Мбит/сек
Название фильма                          : Banshee.S04E01.HDTV1080p.Rus.Eng.DV.Amedia / NNM-Club
Дата кодирования                         : UTC 2016-04-10 10:12:26
Программа кодирования                    : mkvmerge v8.2.0 ('World of Adventure') 64bit
Библиотека кодирования                   : libebml v1.3.1 + libmatroska v1.4.2
Обложка                                  : Yes
Attachments                              : Cover

Видео
Идентификатор                            : 1
Формат                                   : AVC
Формат/Информация                        : Advanced Video Codec
Профиль формата                          : High@L4.1
Параметр CABAC формата                   : Да
Параметр ReFrames формата                : 4 кадра
Идентификатор кодека                     : V_MPEG4/ISO/AVC
Продолжительность                        : 55 м.
Битрейт                                  : 10,7 Мбит/сек
Ширина                                   : 1920 пикселей
Высота                                   : 1080 пикселей
Соотношение сторон                       : 16:9
Режим частоты кадров                     : Постоянный
Частота кадров                           : 25,000 кадров/сек
Цветовое пространство                    : YUV
Субдискретизация насыщенности            : 4:2:0
Битовая глубина                          : 8 бит
Тип развёртки                            : Прогрессивная
Бит/(Пиксели*Кадры)                      : 0.206
Размер потока                            : 4,13 Гбайт (93%)
Библиотека кодирования                   : x264 core 148 r2665+53 6629127 t_mod_Custom [8-bit@all X86_64]
Настройки программы                      : cabac=1 / ref=4 / deblock=1:-3:-3 / analyse=0x3:0x113 / me=umh / subme=11 / psy=1 / fade_compensate=0.00 / psy_rd=1.00:0.00 / mixed_ref=1 / me_range=32 / chroma_me=1 / trellis=2 / 8x8dct=1 / cqm=0 / deadzone=21,11 / fast_pskip=0 / chroma_qp_offset=-2 / threads=24 / lookahead_threads=4 / sliced_threads=0 / nr=0 / decimate=0 / interlaced=0 / bluray_compat=0 / constrained_intra=0 / fgo=0 / bframes=8 / b_pyramid=2 / b_adapt=2 / b_bias=0 / direct=3 / weightb=1 / open_gop=0 / weightp=2 / keyint=250 / keyint_min=23 / scenecut=40 / intra_refresh=0 / rc_lookahead=60 / rc=crf / mbtree=0 / crf=17.0000 / qcomp=0.60 / qpmin=0:0:0 / qpmax=69:69:69 / qpstep=4 / vbv_maxrate=62500 / vbv_bufsize=78125 / crf_max=0.0 / nal_hrd=none / filler=0 / ip_ratio=1.40 / pb_ratio=1.30 / aq=3:0.80 / aq-sensitivity=10.00 / aq-factor=1.00:1.00:1.00 / aq2=0 / aq3=0
Язык                                     : English
Default                                  : Да
Forced                                   : Нет
Цветовой диапазон                        : Limited
Коэффициенты матрицы                     : BT.709

Аудио #1
Идентификатор                            : 2
Формат                                   : AC-3
Формат/Информация                        : Audio Coding 3
Расширение режима                        : CM (complete main)
Параметр Endianness формата              : Big
Идентификатор кодека                     : A_AC3
Продолжительность                        : 55 м.
Вид битрейта                             : Постоянный
Битрейт                                  : 384 Кбит/сек
Каналы                                   : 6 каналов
Расположение каналов                     : Front: L C R, Side: L R, LFE
Частота                                  : 48,0 КГц
Частота кадров                           : 31,250 кадров/сек (1536 spf)
Метод сжатия                             : С потерями
Размер потока                            : 152 Мбайт (3%)
Заголовок                                : Amedia
Язык                                     : Russian
Default                                  : Да
Forced                                   : Нет

Аудио #2
Идентификатор                            : 3
Формат                                   : AC-3
Формат/Информация                        : Audio Coding 3
Расширение режима                        : CM (complete main)
Параметр Endianness формата              : Big
Идентификатор кодека                     : A_AC3
Продолжительность                        : 55 м.
Вид битрейта                             : Постоянный
Битрейт                                  : 384 Кбит/сек
Каналы                                   : 6 каналов
Расположение каналов                     : Front: L C R, Side: L R, LFE
Частота                                  : 48,0 КГц
Частота кадров                           : 31,250 кадров/сек (1536 spf)
Метод сжатия                             : С потерями
Размер потока                            : 152 Мбайт (3%)
Язык                                     : English
Default                                  : Нет
Forced                                   : Нет

Текст #1
Идентификатор                            : 4
Формат                                   : UTF-8
Идентификатор кодека                     : S_TEXT/UTF8
Идентификатор кодека/Информация          : UTF-8 Plain Text
Продолжительность                        : 52 м.
Битрейт                                  : 64 бит/сек
Count of elements                        : 622
Размер потока                            : 24,9 Кбайт (0%)
Язык                                     : Russian
Default                                  : Нет
Forced                                   : Нет

Текст #2
Идентификатор                            : 5
Формат                                   : UTF-8
Идентификатор кодека                     : S_TEXT/UTF8
Идентификатор кодека/Информация          : UTF-8 Plain Text
Продолжительность                        : 54 м.
Битрейт                                  : 49 бит/сек
Count of elements                        : 547
Размер потока                            : 19,4 Кбайт (0%)
Язык                                     : English
Default                                  : Нет
Forced                                   : Нет

Скриншоты:




Время раздачи: до 3-х скачавших, далее по возможности.
Не забывайте говорить Спасибо. Не уходите с раздачи!   
Торрент: Зарегистрирован [03 апр 2016, 15:49]
Статус:
Проверен
 
.torrent скачан: 0 раз
Хэш: a1e8e1433d69648064aa530194111486122c3394
Размер: 30.59 ГБ (32 849 260 435 байт)
   Стать Автором раздачи
   
Цитата
  • Похожие торренты
    Ответы
    Просмотры
    Последнее сообщение

Вернуться в Банши / Banshee

Кто сейчас на конференции

Сейчас эту тему просматривают: нет зарегистрированных пользователей и гости: 1