Форс-мажоры / Костюмы в законе / Suits (2015) WEB-DLRip (сезон 5, серии 1-16 из 16) NewStudio

 Статистика раздачи 
Размер: 8.59 ГБ   |  Зарегистрирован: 25 июн 2015, 20:21   |   .torrent скачан: 0 раз
Сидеров: 0  [ 0 байт/сек ]     Личеров: 0  [ 0 байт/сек ]  
  
Аватара пользователя
Главный редактор
Главный редактор
 
Раздал: 83.18 ТБ
Скачал: 3.76 ТБ
Ратио: 22.548
Сообщения: 213311
Стаж: 8 лет 8 месяцев 21 день
Откуда: Санкт-Петербург

Форс-мажоры / Костюмы в законе / Suits (2015) WEB-DLRip (сезон 5, серии 1-16 из 16)

«Two Lawyers. One Degree»
Производство: США
Жанр: драма, комедия

Режиссер: Кевин Брэй, Антон Кроппер, Майкл Смит
Актеры: Патрик Дж. Адамс, Гэбриел Махт, Меган Маркл, Джина Торрес, Рик Хоффман, Сара Рафферти, Аманда Шулл и др.

Описание:
«Форс-мажоры» — сериал о тандеме профессионального юриста Харви Спектра и студента-лжеца Майка Росса.
Майк и Харви – это команда победителей. Хотя Майк и гений, ему все еще надо много чего узнать о законах. Харви кажется бесстрастной и хладнокровной акулой бизнеса, однако, сочувствие клиентам и озабоченность их делами Майка, поможет Харви вспомнить, зачем он в свое время пришел в юриспруденцию. Другими союзниками Майка в фирме станет лучший помощник юриста в компании Рейчел и здравомыслящая ассистентка Харви Донна. Доказывая, что они неутомимая парочка и бесценны для фирмы, Майку и Харви приходится хранить свою тайну от всех, в том числе и от начальника Харви, Джессики и заклятого врага Харви Луиса, который, кажется, поставил себе целью сделать жизнь Майкла невыносимой.

http://www.imdb.com/title/tt1632701/?ref_=plg_rt_1

Продолжительность: ~00:42:00 серия
Качество видео: WEB-DLRip
Перевод: Двухголосый закадровый, профессиональный - NewStudio
Автор перевода: Ptyza
Реклама: присутствуют аудио вставки рекламы.

Видео: XviD, 720x400 (16:9), ~1550 Kb/s
Аудио Rus: MPEG Layer 3, 48,0 kHz, 2 ch, 128 kb/s — двухголосый закадровый
Аудио Eng: MPEG Layer 3, 48,0 kHz, 2 ch, 128 kb/s — оригинал
Общее
Полное имя : D:\Форс-мажоры (сезон 5) Suits (2015) WEB-DLRip - NewStudio\Suits.s05e01.WEBDLRip.NewStudio.TV.avi
Формат : AVI
Формат/Информация : Audio Video Interleave
Размер файла : 550 Мбайт
Продолжительность : 42 м.
Общий поток : 1814 Кбит/сек
Программа кодирования : VirtualDubMod 1.5.10.2 (build 2540/release)
Библиотека кодирования : VirtualDubMod build 2540/release

Видео
Идентификатор : 0
Формат : MPEG-4 Visual
Профиль формата : Advanced Simple@L5
Параметр BVOP формата : 2
Параметр QPel формата : Нет
Параметр GMC формата : Без точки перехода
Параметр матрицы формата : Default (MPEG)
Идентификатор кодека : XVID
Идентификатор кодека/Подсказка : XviD
Продолжительность : 42 м.
Битрейт : 1544 Кбит/сек
Ширина : 720 пикселей
Высота : 400 пикселей
Соотношение сторон : 16:9
Частота кадров : 23,976 кадра/сек
Цветовое пространство : YUV
Субдискретизация насыщенности : 4:2:0
Битовая глубина : 8 бит
Тип развёртки : Прогрессивная
Метод сжатия : С потерями
Бит/(Пиксели*Кадры) : 0.224
Размер потока : 468 Мбайт (85%)
Библиотека кодирования : XviD 73

Аудио #1
Идентификатор : 1
Формат : MPEG Audio
Версия формата : Version 1
Профиль формата : Layer 3
Режим : Joint stereo
Расширение режима : MS Stereo
Идентификатор кодека : 55
Идентификатор кодека/Подсказка : MP3
Продолжительность : 42 м.
Вид битрейта : Постоянный
Битрейт : 128 Кбит/сек
Каналы : 2 канала
Частота : 48,0 КГц
Метод сжатия : С потерями
Размер потока : 38,8 Мбайт (7%)
Выравнивание : Соединение по промежуткам
Продолжительность промежутка : 42 мс. (1,00 видеокадр)
Время предзагрузки промежутка : 504 мс.

Аудио #2
Идентификатор : 2
Формат : MPEG Audio
Версия формата : Version 1
Профиль формата : Layer 3
Режим : Joint stereo
Расширение режима : MS Stereo
Идентификатор кодека : 55
Идентификатор кодека/Подсказка : MP3
Продолжительность : 42 м.
Вид битрейта : Постоянный
Битрейт : 128 Кбит/сек
Каналы : 2 канала
Частота : 48,0 КГц
Метод сжатия : С потерями
Размер потока : 38,8 Мбайт (7%)
Выравнивание : Соединение по промежуткам
Продолжительность промежутка : 42 мс. (1,00 видеокадр)
Время предзагрузки промежутка : 504 мс.
Библиотека кодирования : LAME3.99r
Настройки программы : -m j -V 4 -q 2 -lowpass 17 -b 128
01. Denial / Отрицание
02. Compensation / Компенсация
03. No Refills / Таблеток больше не будет
04. No Puedo Hacerlo / Ничего не выйдет
05. Toe to Toe / Лицом к лицу
06. Privilege / Конфиденциальность
07. Hitting Home / За живое
08. Mea Culpa / Моя вина
09. Uninvited Guests / Незваные гости
10. Faith / Вера
11. Blowback / Эффект бумеранга
12. Live to Fight / Еще поборемся
13. God's Green Earth / На свете Божьем
14. Self Defense / Самозащита
15. Tick Tock / Тик-так
16. 25th Hour / Двадцать пятый час

Скриншоты:




Время раздачи: до 3-х скачавших, далее по возможности.
Не забывайте говорить Спасибо. Не уходите с раздачи!   
Торрент: Зарегистрирован [25 июн 2015, 20:21]
Статус:
Проверен
 
.torrent скачан: 0 раз
Хэш: fd95ca1ba16493c70f033a9c85efa9fd9612a33e
Размер: 8.59 ГБ (9 227 331 584 байт)
   Стать Автором раздачи
   
Цитата

Вернуться в Форс-мажоры / Suits

Кто сейчас на конференции

Сейчас эту тему просматривают: нет зарегистрированных пользователей и гости: 1