Смурфики 2 / The Smurfs 2 (Раджа Госнелл / Raja Gosnell) [2013, США, мультфильм, фэнтези, комедия, семейный, DVD9] R5 «Columbia/Sony»

 Статистика раздачи 
Размер: 6.14 ГБ   |  Зарегистрирован: 13 ноя 2013, 19:54   |   .torrent скачан: 1 раз
Сидеров: 4  [ 0 байт/сек ]     Личеров: 2  [ 0 байт/сек ]  
  
Аватара пользователя
Модератор Видео
Модератор Видео
 
Раздал: 111.43 ТБ
Скачал: 5.65 ГБ
Ратио: 20207.054
Сообщения: 1196
Стаж: 9 лет 11 месяцев 26 дней

Смурфики 2 / The Smurfs 2


«Увидеть Париж и... осмурфеть!»




Страна: США
Студия: Columbia Pictures, Kerner Entertainment Company, Sony Pictures Animation
Жанр: мультфильм, фэнтези, комедия, семейный
Год выпуска: 2013
Мировая премьера: 28 июля 2013
Российская премьера: 1 августа 2013, «WDSSPR» 3D
Украинская премьера: 1 августа 2013, «B&H Film Distribution Company» 3D
Дата выхода DVD: 19 ноября 2013, «Columbia/Sony»
Дата выхода Blu-Ray: 19 ноября 2013, «Columbia/Sony»
Продолжительность: 01:40:36
Перевод: Профессиональный (дублированный) [Лицензия]
Cубтитры: русские, английские, латышские, литовские, эстонские, украинские
Оригинальная аудиодорожка: английский

Режиссер: Раджа Госнелл / Raja Gosnell

В ролях: Хэнк Азария, Нил Патрик Харрис, Брендан Глисон, Джейма Мейс, Джонатан Уинтерс, Кэти Перри, Кристина Риччи, Дж.Б. Смув, Джордж Лопес, Антон Ельчин

Роли дублировали: Сергей Паршин, Нюша Шурочкина, Валерий Смекалов...

Описание: Гаргамел создаёт Хакуса и Векси, как две капли воды похожую на смурфиков злобную парочку, надеясь всё-таки обрести магическую силу. Когда он узнаёт, что лишь настоящий смурф может дать ему то, что он хочет, и лишь Смурфетта способна превратить Хакуса и Векси в настоящих смурфов, Гаргамел похищает Смурфетту и берёт её с собой в Париж, планируя сделать её своей прислужницей. Но смурфики — Папа, Растяпа, Смельчак, Ворчун, Красавчик, Благоразумник — и их друзья из Нью-Йорка этого так не оставят. Тем более что к ним присоединился новорождённый Голубчик.

Бонусы: Удаленные сцены, "Папина дочка": история Смурфетты, Анимация Азраэля, Трейлеры



Релиз группы:

Качество: DVD9 R5
Формат: DVD-Video
Видео кодек: MPEG2
Аудио кодек: AC3
Видео: PAL 16:9 (720x576(0.526)) MPEG Video, 25,000 кадр/сек, 5458 Кбит/сек
Аудио #1: English (Dolby AC3, 6 ch) 448 Кбит/сек, 48,0 КГц
Аудио #2: Estonian (Dolby AC3, 2 ch) 192 Кбит/сек, 48,0 КГц
Аудио #3: Latvian (Dolby AC3, 2 ch) 192 Кбит/сек, 48,0 КГц
Аудио #4: Lithuanian (Dolby AC3, 2 ch) 192 Кбит/сек, 48,0 КГц
Аудио #5: Russian (Dolby AC3, 6 ch) 384 Кбит/сек, 48,0 КГц
Аудио #6: Ukrainian (Dolby AC3, 6 ch) 384 Кбит/сек, 48,0 КГц


Title: Smurfiki.2.2013.DVD9
Size: 6.14 Gb ( 6 436 926,00 KBytes ) - DVD-9
Enabled regions: 1, 2, 3, 4, 5, 6, 7, 8

VTS_01 :
Play Length: 01:40:36
Video: PAL 16:9 (720x576) VBR, Auto Letterboxed
Audio:
English (Dolby AC3, 6 ch)
Estonian (Dolby AC3, 2 ch)
Latvian (Dolby AC3, 2 ch)
Lithuanian (Dolby AC3, 2 ch)
Russian (Dolby AC3, 6 ch)
Ukrainian (Dolby AC3, 6 ch)
Subtitles:
English
Russian
Estonian
Latvian
Lithuanian
Ukrainian

VTS_02 :
Play Length: 00:03:46+00:01:19+00:01:20+00:00:24+00:00:48+00:00:25+00:06:06+00:03:17+00:00:00+00:00:00+{00:00:00}+{00:00:00}
Video: PAL 16:9 (720x576) VBR, Auto Letterboxed
Audio:
English (Dolby AC3, 2 ch)
Subtitles:
Russian

VTS_03 :
Play Length: 00:00:00+00:00:00+00:00:00+00:00:00+00:00:00+00:00:00
Video: PAL 16:9 (720x576) VBR, Auto Letterboxed

VTS_04 :
Play Length: 00:00:00+00:00:00+00:00:00+00:00:00+00:00:00+00:00:00+00:00:00+00:00:00+00:00:00
Video: PAL 16:9 (720x576) VBR, Auto Letterboxed

VTS_05 :
Play Length: 00:00:00+00:00:00+00:00:00+00:00:00+00:00:00+00:00:00+00:00:00+00:00:00+00:00:00
Video: PAL 16:9 (720x576) VBR, Auto Letterboxed

VTS_06 :
Play Length: 00:00:00+00:00:00+00:00:00+00:00:00+00:00:00+00:00:00+00:00:00+00:00:00+00:00:00
Video: PAL 16:9 (720x576) VBR, Auto Letterboxed

VTS_07 :
Play Length: 00:00:00+00:00:00+00:00:00+00:00:00+00:00:00+00:00:00+00:00:00+00:00:00+00:00:00
Video: PAL 16:9 (720x576) VBR, Auto Letterboxed

VTS_08 :
Play Length: 00:06:46+00:06:46+00:00:00+00:00:00+00:00:00+00:00:00+00:00:00+00:00:00
Video: PAL 16:9 (720x576) VBR, Auto Letterboxed
Audio:
English (Dolby AC3, 6 ch)

VTS_09 :
Play Length: 00:00:01+00:00:00+00:00:00
Video: PAL 16:9 (720x576) VBR, Auto Letterboxed

VTS_10 :
Play Length: 00:00:01+00:00:00+00:00:00+00:00:00+00:00:00+00:00:00+00:00:00+00:00:00+{00:00:00}+{00:00:00}
Video: PAL 4:3 (720x576) VBR

VTS_11 :
Play Length: 00:00:01+00:00:00+00:00:00+00:00:00+00:00:00+00:00:00+00:00:00+00:00:00+{00:00:00}
Video: PAL 4:3 (720x576) VBR

VTS_12 :
Play Length: 00:00:00
Video: PAL 16:9 (720x576) VBR, Auto Letterboxed

VTS_13 :
Play Length: 00:00:00
Video: PAL 16:9 (720x576) VBR, Auto Letterboxed

VTS_14 :
Play Length: 00:00:00+00:00:10+00:00:10+00:00:12+00:00:10+00:00:08+00:00:10+00:00:10+{00:00:00}+{00:00:10}+{00:00:10}+{00:00:12}+{00:00:10}+{00:00:08}+{00:00:09}+{00:00:10}+{00:00:00}+00:00:10+00:00:10+00:00:05+00:00:10+00:00:10+00:00:10+00:00:10+00:00:10+00:00:05+00:00:10+00:00:10+00:00:10+00:00:10+00:00:08+00:00:05+{00:00:10}+00:00:05+00:00:10+00:00:05+00:00:10+00:00:10+00:00:00+{00:00:10}
Video: PAL 16:9 (720x576) VBR, Auto Letterboxed
Audio:
Not specified (Dolby AC3, 2 ch)

VTS_15 :
Play Length: 00:00:00+{00:00:00}+00:00:00
Video: PAL 4:3 (720x576) VBR

VTS_16 :
Play Length: 00:00:00+00:00:05+00:00:05+00:00:05+00:00:05+00:00:05+00:00:05+00:00:05+00:00:05+00:00:05+00:00:05+00:00:05+00:00:05+00:00:05+00:00:05+00:00:05+00:00:05+00:00:05+00:00:05+00:00:05+00:00:05+00:00:05+00:00:05+00:00:05+00:00:05+00:00:05+00:00:05+00:00:05+00:00:00
Video: PAL 16:9 (720x576) VBR, Auto Letterboxed
Audio:
Not specified (Dolby AC3, 2 ch)

VTS_17 :
Play Length: 00:00:00
Video: PAL 16:9 (720x576) VBR, Auto Letterboxed

VTS_18 :
Play Length: 00:00:00
Video: PAL 16:9 (720x576) VBR, Auto Pan&Scan

* Menus Information *

VIDEO_TS Menu
Video:
PAL 16:9 (720x576) VBR
Auto Pan&Scan
Audio:
Not specified (Dolby AC3, 6 ch)
English Language Unit :
Title Menu

VTS_01 Menu
Video:
PAL 16:9 (720x576) VBR
Auto Pan&Scan
Audio:
Not specified (Dolby AC3, 2 ch)
English Language Unit :
Root Menu
Chapter (PTT) Menu

VTS_02 Menu
Video:
PAL 4:3 (720x576) VBR
English Language Unit :
Root Menu

VTS_03 Menu
Video:
PAL 4:3 (720x576) VBR
English Language Unit :
Root Menu

VTS_04 Menu
Video:
PAL 4:3 (720x576) VBR
English Language Unit :
Root Menu

VTS_05 Menu
Video:
PAL 4:3 (720x576) VBR
English Language Unit :
Root Menu

VTS_06 Menu
Video:
PAL 4:3 (720x576) VBR
English Language Unit :
Root Menu

VTS_07 Menu
Video:
PAL 4:3 (720x576) VBR
English Language Unit :
Root Menu

VTS_08 Menu
Video:
PAL 4:3 (720x576) VBR
English Language Unit :
Root Menu

VTS_09 Menu
Video:
PAL 4:3 (720x576) VBR
English Language Unit :
Root Menu

VTS_10 Menu
Video:
PAL 4:3 (720x576) VBR
English Language Unit :
Root Menu

VTS_11 Menu
Video:
PAL 4:3 (720x576) VBR
English Language Unit :
Root Menu

VTS_12 Menu
Video:
PAL 4:3 (720x576) VBR
English Language Unit :
Root Menu

VTS_13 Menu
Video:
PAL 4:3 (720x576) VBR
English Language Unit :
Root Menu

VTS_14 Menu
Video:
PAL 4:3 (720x576) VBR
English Language Unit :
Root Menu

VTS_15 Menu
Video:
PAL 16:9 (720x576) VBR
Auto Pan&Scan
English Language Unit :
Root Menu

VTS_16 Menu
Video:
PAL 16:9 (720x576) VBR
Auto Pan&Scan
English Language Unit :
Root Menu

VTS_17 Menu
Video:
PAL 4:3 (720x576) VBR
English Language Unit :
Root Menu

VTS_18 Menu
Video:
PAL 4:3 (720x576) VBR
English Language Unit :
Root Menu


Общее
Полное имя : F:\Новинки 2013\Smurfiki.2.2013.DVD9\VIDEO_TS\VTS_01_2.VOB
Формат : MPEG-PS
Размер файла : 1024 Мбайт
Продолжительность : 19 м.
Режим общего битрейта : Переменный
Общий поток : 7397 Кбит/сек

Видео
Идентификатор : 224 (0xE0)
Формат : MPEG Video
Версия формата : Version 2
Профиль формата : Main@Main
Параметр BVOP формата : Да
Параметр матрицы формата : Выборочная
Параметр GOP формата : Variable
Продолжительность : 19 м.
Вид битрейта : Переменный
Битрейт : 5458 Кбит/сек
Максимальный битрейт : 9800 Кбит/сек
Ширина : 720 пикселей
Высота : 576 пикселей
Соотношение сторон : 16:9
Частота кадров : 25,000 кадров/сек
Стандарт вещания : PAL
Цветовое пространство : YUV
Субдискретизация насыщенности : 4:2:0
Битовая глубина : 8 бит
Тип развёртки : Прогрессивная
Порядок развёртки : Верхнее поле первое
Метод сжатия : С потерями
Бит/(Пиксели*Кадры) : 0.526
Временной код первого кадра : 01:15:37:24
Оригинал временного кода : Group of pictures header
Размер потока : 755 Мбайт (74%)

Аудио #1
Идентификатор : 189 (0xBD)-128 (0x80)
Формат : AC-3
Формат/Информация : Audio Coding 3
Расширение режима : CM (complete main)
Параметр Endianness формата : Big
Режим смешивания : DVD-Video
Продолжительность : 19 м.
Вид битрейта : Постоянный
Битрейт : 448 Кбит/сек
Каналы : 6 каналов
Расположение каналов : Front: L C R, Side: L R, LFE
Частота : 48,0 КГц
Битовая глубина : 16 бит
Метод сжатия : С потерями
Задержка видео : -552 мс.
Размер потока : 62,0 Мбайт (6%)

Аудио #2
Идентификатор : 189 (0xBD)-129 (0x81)
Формат : AC-3
Формат/Информация : Audio Coding 3
Профиль формата : Dolby Digital
Расширение режима : CM (complete main)
Параметр Endianness формата : Big
Режим смешивания : DVD-Video
Продолжительность : 19 м.
Вид битрейта : Постоянный
Битрейт : 192 Кбит/сек
Каналы : 2 канала
Расположение каналов : Front: L R
Частота : 48,0 КГц
Битовая глубина : 16 бит
Метод сжатия : С потерями
Задержка видео : -456 мс.
Размер потока : 26,6 Мбайт (3%)

Аудио #3
Идентификатор : 189 (0xBD)-130 (0x82)
Формат : AC-3
Формат/Информация : Audio Coding 3
Профиль формата : Dolby Digital
Расширение режима : CM (complete main)
Параметр Endianness формата : Big
Режим смешивания : DVD-Video
Продолжительность : 19 м.
Вид битрейта : Постоянный
Битрейт : 192 Кбит/сек
Каналы : 2 канала
Расположение каналов : Front: L R
Частота : 48,0 КГц
Битовая глубина : 16 бит
Метод сжатия : С потерями
Задержка видео : -456 мс.
Размер потока : 26,6 Мбайт (3%)

Аудио #4
Идентификатор : 189 (0xBD)-131 (0x83)
Формат : AC-3
Формат/Информация : Audio Coding 3
Профиль формата : Dolby Digital
Расширение режима : CM (complete main)
Параметр Endianness формата : Big
Режим смешивания : DVD-Video
Продолжительность : 19 м.
Вид битрейта : Постоянный
Битрейт : 192 Кбит/сек
Каналы : 2 канала
Расположение каналов : Front: L R
Частота : 48,0 КГц
Битовая глубина : 16 бит
Метод сжатия : С потерями
Задержка видео : -456 мс.
Размер потока : 26,6 Мбайт (3%)

Аудио #5
Идентификатор : 189 (0xBD)-132 (0x84)
Формат : AC-3
Формат/Информация : Audio Coding 3
Расширение режима : CM (complete main)
Параметр Endianness формата : Big
Режим смешивания : DVD-Video
Продолжительность : 19 м.
Вид битрейта : Постоянный
Битрейт : 384 Кбит/сек
Каналы : 6 каналов
Расположение каналов : Front: L C R, Side: L R, LFE
Частота : 48,0 КГц
Битовая глубина : 16 бит
Метод сжатия : С потерями
Задержка видео : -584 мс.
Размер потока : 53,2 Мбайт (5%)

Аудио #6
Идентификатор : 189 (0xBD)-133 (0x85)
Формат : AC-3
Формат/Информация : Audio Coding 3
Расширение режима : CM (complete main)
Параметр Endianness формата : Big
Режим смешивания : DVD-Video
Продолжительность : 19 м.
Вид битрейта : Постоянный
Битрейт : 384 Кбит/сек
Каналы : 6 каналов
Расположение каналов : Front: L C R, Side: L R, LFE
Частота : 48,0 КГц
Битовая глубина : 16 бит
Метод сжатия : С потерями
Задержка видео : -584 мс.
Размер потока : 53,2 Мбайт (5%)

Текст #1
Идентификатор : 189 (0xBD)-32 (0x20)
Формат : RLE
Формат/Информация : Run-length encoding
Режим смешивания : DVD-Video

Текст #2
Идентификатор : 189 (0xBD)-33 (0x21)
Формат : RLE
Формат/Информация : Run-length encoding
Режим смешивания : DVD-Video










Не забывайте говорить Спасибо. Не уходите с раздачи!   
Торрент: Зарегистрирован [13 ноя 2013, 19:54]
Статус:
Проверен
 
.torrent скачан: 1 раз
Хэш: c8c33319fc36cad70fee113859b31f348cec1603
Размер: 6.14 ГБ (6 591 412 224 байт)
   Стать Автором раздачи
   
Цитата
  • Похожие торренты
    Ответы
    Просмотры
    Последнее сообщение

Вернуться в Зарубежное кино (DVD)

Кто сейчас на конференции

Сейчас эту тему просматривают: нет зарегистрированных пользователей и гости: 1