(Pop, Soul, Electronic, Synthpop) [CD] Michael Jackson - Xscape (Deluxe Edition) - 2014, FLAC (tracks+.cue), lossless

 Статистика раздачи 
Размер: 532.2 МБ   |  Зарегистрирован: 12 май 2014, 16:20   |   .torrent скачан: 21 раз
Сидеров: 35  [ 0 байт/сек ]     Личеров: 20  [ 0 байт/сек ]  
  
Аватара пользователя
Главный редактор
Главный редактор
Автор темы
Раздал: 10.09 ТБ
Скачал: 1.76 ТБ
Ратио: 6.147
Сообщения: 3344
Стаж: 6 лет 5 месяцев 5 дней
Откуда: Санкт-Петербург

Michael Jackson - Xscape (Deluxe Edition)


Оригинальное название: Michael Jackson - Xscape
Страна: США
Производитель Диска - Лейбл: MJJ / Epic / Sony Music
Жанр: Pop, Soul, Electronic, Synthpop
Дата выхода: 2014
Формат аудио: FLAC
Исполнитель: Michael Jackson
Тип рипа: image+.cue
Битрэйт: lossless
Продолжительность: 01:13:32
Наличие сканов в содержимом раздачи: да
Описание: Xscape - двенадцатый студийный альбом Майкла Джексона, релиз которого состоялся 9 мая 2014 года на лейбле Epic в Германии, Испании и Польше. В пластинку вошли восемь ранее неизданных песен музыканта, которые продюсеры звукозаписывающей компании Epic Records отобрали из архива записей Джексона.
Над новым альбомом певца работали несколько именитых продюсеров: исполнительный директор звукозаписывающего лейбла Epic Records Эл Эй Рейд, Тимбалэнд, а также Родни Джеркинс - продюсер последнего прижизненного студийного альбома Джексона Invincible, принимавший участие в создании песни «Xscape», титульного трека новой пластинки.
Альбом поступил в продажу в двух вариантах. В обычную версию войдут песни в современной переработке продюсеров, в делюкс-издании их дополнят оригинальные демоверсии и два видеоролика. Для продвижения Xscape распорядители наследием Майкла Джексона заключили контракт с производителем смартфонов Sony Xperia Z2. 13 мая, в день релиза альбома в США, Канаде, Италии и России, треки с пластинки станут бесплатно доступны владельцам новых мобильных устройств.
2 мая 2014 года на церемонии вручения наград «IHeartRadio Music Awards» состоялась премьера первого сингла из альбома. Им стала «Love Never Felt So Good», оригинальная демоверсия которой была записана Джексоном в 1983 году. Для церемонии был подготовлен хореографический номер-трибьют Джексону с участием певца Ашера. Песня получила доброжелательные отзывы от музыкальных критиков. Рецензенты Rolling Stone оценили трек положительно, хотя и отметили, что он не стоит на одном уровне с лучшими работами Джексона. В Los Angeles Times «Love Never Felt So Good» назвали золотым образцом диско-соула и написали, что песня с её «плавающими клавишными и искромётными ударными» могла легко попасть на прижизненные альбомы Джексона: Off The Wall или Thriller.
Xscape стал вторым посмертным студийным альбомом певца. В 2010 году, спустя год после кончины исполнителя, была выпущена пластинка Michael.
Трэклист: 01. Love Never Felt So Good - 3:54
02. Chicago - 4:05
03. Loving You - 3:15
04. A Place with No Name - 5:35
05. Slave to the Rhythm - 4:15
06. Do You Know Where Your Children Are - 4:36
07. Blue Gangsta - 4:14
08. Xscape - 4:04
09. Love Never Felt So Good (Original Version) - 3:19
10. Chicago (Original Version) - 4:43
11. Loving You (Original Version) - 3:02
12. A Place with No Name (Original Version) - 4:55
13. Slave to the Rhythm (Original Version) - 4:35
14. Do You Know Where Your Children Are (Original Version) - 4:39
15. Blue Gangsta (Original Version) - 4:16 -
16. Xscape (Original Version) - 5:44
17. Love Never Felt So Good (feat. Justin Timberlake) - 4:06

Код: Выделить всё
Exact Audio Copy V1.0 beta 3 from 29. August 2011
EAC extraction logfile from 8. May 2014, 16:55
Michael Jackson / Xscape
Used drive  : TSSTcorpCDDVDW SH-224DB   Adapter: 3  ID: 0
Read mode               : Secure
Utilize accurate stream : Yes
Defeat audio cache      : No
Make use of C2 pointers : Yes
Read offset correction                      : 6
Overread into Lead-In and Lead-Out          : No
Fill up missing offset samples with silence : Yes
Delete leading and trailing silent blocks   : No
Null samples used in CRC calculations       : Yes
Used interface                              : Installed external ASPI interface
Used output format : Internal WAV Routines
Sample format      : 44.100 Hz; 16 Bit; Stereo
TOC of the extracted CD
     Track |   Start  |  Length  | Start sector | End sector
    ---------------------------------------------------------
        1  |  0:00.00 |  3:54.69 |         0    |    17618
        2  |  3:54.69 |  4:05.33 |     17619    |    36026
        3  |  8:00.27 |  3:15.38 |     36027    |    50689
        4  | 11:15.65 |  5:35.12 |     50690    |    75826
        5  | 16:51.02 |  4:15.74 |     75827    |    95025
        6  | 21:07.01 |  4:36.29 |     95026    |   115754
        7  | 25:43.30 |  4:14.39 |    115755    |   134843
        8  | 29:57.69 |  4:05.71 |    134844    |   153289
        9  | 34:03.65 |  3:21.21 |    153290    |   168385
       10  | 37:25.11 |  4:43.62 |    168386    |   189672
       11  | 42:08.73 |  3:02.53 |    189673    |   203375
       12  | 45:11.51 |  4:56.48 |    203376    |   225623
       13  | 50:08.24 |  4:36.24 |    225624    |   246347
       14  | 54:44.48 |  4:39.41 |    246348    |   267313
       15  | 59:24.14 |  4:17.17 |    267314    |   286605
       16  | 63:41.31 |  5:44.32 |    286606    |   312437
       17  | 69:25.63 |  4:05.71 |    312438    |   330883
Range status and errors
Selected range
     Filename F:\POST 2\Michael Jackson - Xscape.wav
     Peak level 100.0 %
     Extraction speed 10.4 X
     Range quality 100.0 %
     Test CRC F7050367
     Copy CRC F7050367
     Copy OK
No errors occurred
AccurateRip summary
Track  1  not present in database
Track  2  not present in database
Track  3  not present in database
Track  4  not present in database
Track  5  not present in database
Track  6  not present in database
Track  7  not present in database
Track  8  not present in database
Track  9  not present in database
Track 10  not present in database
Track 11  not present in database
Track 12  not present in database
Track 13  not present in database
Track 14  not present in database
Track 15  not present in database
Track 16  not present in database
Track 17  not present in database
None of the tracks are present in the AccurateRip database
End of status report

Код: Выделить всё
PERFORMER "Michael Jackson"
TITLE "Xscape"
FILE "01 Love Never Felt So Good.flac" WAVE
  TRACK 01 AUDIO
    TITLE "Love Never Felt So Good "
    PERFORMER "Michael Jackson"
    INDEX 01 00:00:00
FILE "02 Chicago.flac" WAVE
  TRACK 02 AUDIO
    TITLE "Chicago"
    PERFORMER "Michael Jackson"
    INDEX 01 00:00:00
FILE "03 Loving You.flac" WAVE
  TRACK 03 AUDIO
    TITLE "Loving You"
    PERFORMER "Michael Jackson"
    INDEX 01 00:00:00
FILE "04 A Place With No Name.flac" WAVE
  TRACK 04 AUDIO
    TITLE "A Place With No Name "
    PERFORMER "Michael Jackson"
    INDEX 01 00:00:00
FILE "05 Slave To The Rhythm.flac" WAVE
  TRACK 05 AUDIO
    TITLE "Slave To The Rhythm "
    PERFORMER "Michael Jackson"
    INDEX 01 00:00:00
FILE "06 Do You Know Where Your Children Are.flac" WAVE
  TRACK 06 AUDIO
    TITLE "Do You Know Where Your Children Are "
    PERFORMER "Michael Jackson"
    INDEX 01 00:00:00
FILE "07 Blue Gangsta.flac" WAVE
  TRACK 07 AUDIO
    TITLE "Blue Gangsta"
    PERFORMER "Michael Jackson"
    INDEX 01 00:00:00
FILE "08 Xscape.flac" WAVE
  TRACK 08 AUDIO
    TITLE "Xscape"
    PERFORMER "Michael Jackson"
    INDEX 01 00:00:00
  TRACK 09 AUDIO
    TITLE "Love Never Felt So Good (Original Version) "
    PERFORMER "Michael Jackson"
    INDEX 00 04:05:14
FILE "09 Love Never Felt So Good (Original Version).flac" WAVE
    INDEX 01 00:00:00
  TRACK 10 AUDIO
    TITLE "Chicago (Original Version) "
    PERFORMER "Michael Jackson"
    INDEX 00 03:19:70
FILE "10 Chicago (Original Version).flac" WAVE
    INDEX 01 00:00:00
  TRACK 11 AUDIO
    TITLE "Loving You (Original Version) "
    PERFORMER "Michael Jackson"
    INDEX 00 04:43:31
FILE "11 Loving You (Original Version).flac" WAVE
    INDEX 01 00:00:00
  TRACK 12 AUDIO
    TITLE "A Place With No Name (Original Version) "
    PERFORMER "Michael Jackson"
    INDEX 00 03:02:31
FILE "12 A Place With No Name (Original Version).flac" WAVE
    INDEX 01 00:00:00
  TRACK 13 AUDIO
    TITLE "Slave To The Rhythm (Original Version) "
    PERFORMER "Michael Jackson"
    INDEX 00 04:56:01
FILE "13 Slave To The Rhythm (Original Version).flac" WAVE
    INDEX 01 00:00:00
  TRACK 14 AUDIO
    TITLE "Do You Know Where Your Children Are (Original Version) "
    PERFORMER "Michael Jackson"
    INDEX 00 04:35:44
FILE "14 Do You Know Where Your Children Are (Original Version).flac" WAVE
    INDEX 01 00:00:00
  TRACK 15 AUDIO
    TITLE "Blue Gangsta (Original Version) "
    PERFORMER "Michael Jackson"
    INDEX 00 04:39:26
FILE "15 Blue Gangsta (Original Version).flac" WAVE
    INDEX 01 00:00:00
  TRACK 16 AUDIO
    TITLE "Xscape (Original Version) "
    PERFORMER "Michael Jackson"
    INDEX 00 04:16:71
FILE "16 Xscape (Original Version).flac" WAVE
    INDEX 01 00:00:00
  TRACK 17 AUDIO
    TITLE "Love Never Felt So Good (Featuring Justin Timberlake)"
    PERFORMER "Michael Jackson"
    INDEX 00 05:44:28
FILE "17 Love Never Felt So Good (Featuring Justin Timberlake).flac" WAVE
    INDEX 01 00:00:00

Код: Выделить всё
PERFORMER: auCDtect Task Manager, ver. 1.6.0 RC1 build 1.6.0.1
Copyright (c) 2008-2010 y-soft. All rights reserved
http://y-soft.org
ANALYZER: auCDtect: CD records authenticity detector, version 0.8.2
Copyright (c) 2004 Oleg Berngardt. All rights reserved.
Copyright (c) 2004 Alexander Djourik. All rights reserved.
FILE: 17 Love Never Felt So Good (Featuring Justin Timberlake).flac
  Size: 31270970 Hash: A14DDBF5CBDF038CBCEC3042E41D91E1 Accuracy: -m0
  Conclusion: CDDA 100%
  Signature: 019A06C56F8A590DBC36BB67B69F4C28B6755F18
FILE: 16 Xscape (Original Version).flac
  Size: 42580427 Hash: 86A777C1CF846F27B5BB416E52DDDC32 Accuracy: -m0
  Conclusion: CDDA 100%
  Signature: 823E29FB9A1DE62DB23470C507F6115A7FC9DD89
FILE: 15 Blue Gangsta (Original Version).flac
  Size: 31746566 Hash: 26B56703B148AC92F61193CF2F8E0D85 Accuracy: -m0
  Conclusion: CDDA 100%
  Signature: D1F606B51DF4083A5D65CEA6877C0B17816195A3
FILE: 14 Do You Know Where Your Children Are (Original Version).flac
  Size: 35728124 Hash: 05294FA424AD59887F893F1427DD4173 Accuracy: -m0
  Conclusion: CDDA 100%
  Signature: 6620E1D34CE9D0D32BD7B38C69F706D16084ADEF
FILE: 13 Slave To The Rhythm (Original Version).flac
  Size: 33249286 Hash: DAE9ABB496B2E17EDB89B7A23AB0CC34 Accuracy: -m0
  Conclusion: CDDA 100%
  Signature: 993BC93550D478CF43F164426F71711DCCB90152
FILE: 12 A Place With No Name (Original Version).flac
  Size: 38182892 Hash: 44AD73BF21FA1F209F53EEA869C3FAC5 Accuracy: -m0
  Conclusion: CDDA 100%
  Signature: 872CE916C82F60EDD1EC848E52754096731BEF7D
FILE: 11 Loving You (Original Version).flac
  Size: 20415363 Hash: 28A35A0BF48662D577F1F72580747FA9 Accuracy: -m0
  Conclusion: CDDA 100%
  Signature: C8F89FC69F78791CCB1B9E9A05AA4CF0D10B1413
FILE: 10 Chicago (Original Version).flac
  Size: 32089382 Hash: 5D7B8F5019F6376CB0F045F5EF07D055 Accuracy: -m0
  Conclusion: CDDA 100%
  Signature: B5E8D828DD7AA4A94EFBFBEC9D38E8B9B19C2C98
FILE: 09 Love Never Felt So Good (Original Version).flac
  Size: 23317140 Hash: A16C190E22B54D305F1ECDA63BD8BD98 Accuracy: -m0
  Conclusion: CDDA 100%
  Signature: F0892C4CE3AF481F2C375227829C448A2CF7B643
FILE: 08 Xscape.flac
  Size: 31592708 Hash: C5AA4FE91C0687BC17F15591AA50B67A Accuracy: -m0
  Conclusion: CDDA 100%
  Signature: F3BDD9D9E4E0F1A1A8FF9F453802689967834836
FILE: 07 Blue Gangsta.flac
  Size: 33677806 Hash: 6EFE069C37DEC3379D77E01E87CBBADD Accuracy: -m0
  Conclusion: CDDA 100%
  Signature: 83CC340343A8A20316CA470715666AD97064FEDC
FILE: 06 Do You Know Where Your Children Are.flac
  Size: 35835308 Hash: 4AFA20997E32AD78416132380CC91D19 Accuracy: -m0
  Conclusion: CDDA 100%
  Signature: 4ACF58DC37AC43D540A0AA29F6A0EC686B981A12
FILE: 05 Slave To The Rhythm.flac
  Size: 34275535 Hash: 322470887A05D2B80D20EB5D4E98F039 Accuracy: -m0
  Conclusion: CDDA 100%
  Signature: 9B5F67F9FCC7BE1628F8F734AD84DE76882748F3
FILE: 04 A Place With No Name.flac
  Size: 40278565 Hash: 591316F9BC41951172045B1E4984AF70 Accuracy: -m0
  Conclusion: CDDA 100%
  Signature: D96C24D49B733D92883A291E603C9008B2634D52
FILE: 03 Loving You.flac
  Size: 23932619 Hash: 7E8B64C290F10040BADB5E7F74157C84 Accuracy: -m0
  Conclusion: CDDA 100%
  Signature: 0F8E8405ABAF5B88E98C7EFD67DA2EBF7FBEF01D
FILE: 02 Chicago.flac
  Size: 31057982 Hash: 4E731C7649817AC21B08DFA8F859B161 Accuracy: -m0
  Conclusion: CDDA 100%
  Signature: 1610DC0EE616907291A5B824B9F1F87067CB1606
FILE: 01 Love Never Felt So Good.flac
  Size: 31864219 Hash: 0790B4412A36CEAAA12F38E6C072B0C1 Accuracy: -m0
  Conclusion: CDDA 99%
  Signature: F4076E35683349D8D63D4EB67E0F252D8932121B
   
Торрент: Зарегистрирован [12 май 2014, 16:20] World Pop Скачать торрент Магнет ссылка
Скачать торрент
[ Размер 12.7 КБ / Просмотров 176 ]
Статус:
Проверен
 
.torrent скачан: 21 раз
Размер: 532.2 МБ (558 057 219 байт)
   
 
 
Цитата
  • Похожие торренты
    Ответы
    Просмотры
    Последнее сообщение

Вернуться в World Pop

Кто сейчас на конференции

Сейчас эту тему просматривают: нет зарегистрированных пользователей и гости: 1