Aldebert - Aldebert (2017) [FLAC|Lossless|tracks + .cue] <Chanson, Vocal>

 Статистика раздачи 
Размер: 500.88 МБ   |  Зарегистрирован: 20 сен 2018, 19:04   |   .torrent скачан: 0 раз
Сидеров: 4  [ 0 байт/сек ]     Личеров: 1  [ 0 байт/сек ]  
  
Аватара пользователя
 
Раздал: 1.55 ТБ
Скачал: 30.55 ГБ
Ратио: 51.837
Сообщения: 179345
Стаж: 2 года 5 месяцев 12 дней

Aldebert - Aldebert (2017)

Жанр: Chanson, Vocal
Издание: Note A Bena - NAB 1713
Продолжительность: 01:17:56

Кодек: FLAC
Битрейт: Lossless
Тип рипа: tracks + .cue

Треклист:
01. Carpe Diem (03:35)
02. Les coups de pieds à la lune (03:28)
03. Guillaume Aldebert, Moctar Sall - L'homme Songe (03:32)
04. Mon homonyme (03:57)
05. La plage (live 2010) (05:49)
06. La valse des maîtresses (03:21)
07. Guillaume Aldebert, Stéphane Métin, Christophe Darlot - Saint' Nitouche (03:16)
08. Guillaume Aldebert, Stéphane Métin, Christophe Darlot - Rentrée des classes (04:08)
09. Hold-Up (03:28)
10. Adulescent (02:57)

11. C'est comment là-haut (03:58)
12. Les amis (03:19)
13. L'inventaire (04:04)
14. Marabout (03:14)
15. La méthode Couette (02:47)
16. La complainte l'ex fumeur (03:21)
17. Guillaume Aldebert, Stéphane Métin, Christophe Darlot - Indélébile (03:26)
18. Guillaume Aldebert, Christophe Darlot - La dame aux Camel light (04:28)
19. Vivement la fin (03:53)
20. Hypocondriaque (03:41)
21. Ma vie à l'envers (04:04)
Код: Выделить всё
Exact Audio Copy V1.3 from 2. September 2016

EAC extraction logfile from 26. August 2018, 12:54

Aldebert / Aldebert

Used drive  : HL-DT-STBDDVDRW CT31F   Adapter: 1  ID: 0

Read mode               : Secure
Utilize accurate stream : Yes
Defeat audio cache      : Yes
Make use of C2 pointers : No

Read offset correction                      : 102
Overread into Lead-In and Lead-Out          : No
Fill up missing offset samples with silence : Yes
Delete leading and trailing silent blocks   : No
Null samples used in CRC calculations       : Yes
Used interface                              : Native Win32 interface for Win NT & 2000
Gap handling                                : Appended to previous track

Used output format              : User Defined Encoder
Selected bitrate                : 1024 kBit/s
Quality                         : High
Add ID3 tag                     : No
Command line compressor         : C:\Program Files (x86)\Exact Audio Copy\Flac\flac.exe
Additional command line options : -8 -e -V -T "ARTIST=%artist%" -T "TITLE=%title%" -T "ALBUM=%albumtitle%" -T "DATE=%year%" -T "TRACKNUMBER=%tracknr%" -T "GENRE=%genre%" -T "PERFORMER=%albuminterpret%" -T "COMPOSER=%composer%" %haslyrics%--tag-from-file=LYRICS="%lyricsfile%"%haslyrics% -T "ALBUMARTIST=%albumartist%" -T "DISCNUMBER=%cdnumber%" -T "TOTALDISCS=%totalcds%" -T "TOTALTRACKS=%numtracks%" -T "COMMENT=%comment%" %source% -o %dest%

TOC of the extracted CD

     Track |   Start  |  Length  | Start sector | End sector
    ---------------------------------------------------------
        1  |  0:00.00 |  3:35.38 |         0    |    16162
        2  |  3:35.38 |  3:28.57 |     16163    |    31819
        3  |  7:04.20 |  3:32.21 |     31820    |    47740
        4  | 10:36.41 |  3:57.05 |     47741    |    65520
        5  | 14:33.46 |  5:49.18 |     65521    |    91713
        6  | 20:22.64 |  3:21.71 |     91714    |   106859
        7  | 23:44.60 |  3:16.62 |    106860    |   121621
        8  | 27:01.47 |  4:08.31 |    121622    |   140252
        9  | 31:10.03 |  3:28.17 |    140253    |   155869
       10  | 34:38.20 |  2:57.08 |    155870    |   169152
       11  | 37:35.28 |  3:58.53 |    169153    |   187055
       12  | 41:34.06 |  3:19.01 |    187056    |   201981
       13  | 44:53.07 |  4:04.67 |    201982    |   220348
       14  | 48:57.74 |  3:14.34 |    220349    |   234932
       15  | 52:12.33 |  2:47.06 |    234933    |   247463
       16  | 54:59.39 |  3:21.11 |    247464    |   262549
       17  | 58:20.50 |  3:26.42 |    262550    |   278041
       18  | 61:47.17 |  4:28.72 |    278042    |   298213
       19  | 66:16.14 |  3:53.68 |    298214    |   315756
       20  | 70:10.07 |  3:41.59 |    315757    |   332390
       21  | 73:51.66 |  4:04.60 |    332391    |   350750

Track  1

     Filename C:\EAC Rips\Aldebert - Aldebert {2017 CD #NAB 1713} [FLAC]\01 Track01.wav

     Pre-gap length  0:00:02.00

     Peak level 97.9 %
     Extraction speed 1.0 X
     Track quality 99.9 %
     Test CRC F5C6A013
     Copy CRC F5C6A013
     Track not present in AccurateRip database
     Copy OK

Track  2

     Filename C:\EAC Rips\Aldebert - Aldebert {2017 CD #NAB 1713} [FLAC]\02 Track02.wav

     Pre-gap length  0:00:02.00

     Peak level 97.9 %
     Extraction speed 0.6 X
     Track quality 99.6 %
     Test CRC 65EC56C9
     Copy CRC 65EC56C9
     Track not present in AccurateRip database
     Copy OK

Track  3

     Filename C:\EAC Rips\Aldebert - Aldebert {2017 CD #NAB 1713} [FLAC]\03 Track03.wav

     Pre-gap length  0:00:02.00

     Peak level 97.9 %
     Extraction speed 1.1 X
     Track quality 99.9 %
     Test CRC 28553A64
     Copy CRC 28553A64
     Track not present in AccurateRip database
     Copy OK

Track  4

     Filename C:\EAC Rips\Aldebert - Aldebert {2017 CD #NAB 1713} [FLAC]\04 Track04.wav

     Pre-gap length  0:00:02.00

     Peak level 97.9 %
     Extraction speed 1.3 X
     Track quality 99.9 %
     Test CRC 7A5DE0E0
     Copy CRC 7A5DE0E0
     Track not present in AccurateRip database
     Copy OK

Track  5

     Filename C:\EAC Rips\Aldebert - Aldebert {2017 CD #NAB 1713} [FLAC]\05 Track05.wav

     Pre-gap length  0:00:02.00

     Peak level 97.9 %
     Extraction speed 1.6 X
     Track quality 99.9 %
     Test CRC 24BEC007
     Copy CRC 24BEC007
     Track not present in AccurateRip database
     Copy OK

Track  6

     Filename C:\EAC Rips\Aldebert - Aldebert {2017 CD #NAB 1713} [FLAC]\06 Track06.wav

     Pre-gap length  0:00:02.00

     Peak level 97.9 %
     Extraction speed 1.7 X
     Track quality 100.0 %
     Test CRC E0A05093
     Copy CRC E0A05093
     Track not present in AccurateRip database
     Copy OK

Track  7

     Filename C:\EAC Rips\Aldebert - Aldebert {2017 CD #NAB 1713} [FLAC]\07 Track07.wav

     Pre-gap length  0:00:02.00

     Peak level 97.9 %
     Extraction speed 1.8 X
     Track quality 100.0 %
     Test CRC 9358FE3A
     Copy CRC 9358FE3A
     Track not present in AccurateRip database
     Copy OK

Track  8

     Filename C:\EAC Rips\Aldebert - Aldebert {2017 CD #NAB 1713} [FLAC]\08 Track08.wav

     Pre-gap length  0:00:02.00

     Peak level 97.9 %
     Extraction speed 1.9 X
     Track quality 100.0 %
     Test CRC 1AA14CF9
     Copy CRC 1AA14CF9
     Track not present in AccurateRip database
     Copy OK

Track  9

     Filename C:\EAC Rips\Aldebert - Aldebert {2017 CD #NAB 1713} [FLAC]\09 Track09.wav

     Pre-gap length  0:00:02.00

     Peak level 97.9 %
     Extraction speed 1.9 X
     Track quality 100.0 %
     Test CRC 9892BFF6
     Copy CRC 9892BFF6
     Track not present in AccurateRip database
     Copy OK

Track 10

     Filename C:\EAC Rips\Aldebert - Aldebert {2017 CD #NAB 1713} [FLAC]\10 Track10.wav

     Pre-gap length  0:00:02.00

     Peak level 99.7 %
     Extraction speed 1.9 X
     Track quality 100.0 %
     Test CRC 54EFDF14
     Copy CRC 54EFDF14
     Track not present in AccurateRip database
     Copy OK

Track 11

     Filename C:\EAC Rips\Aldebert - Aldebert {2017 CD #NAB 1713} [FLAC]\11 Track11.wav

     Pre-gap length  0:00:02.00

     Peak level 97.9 %
     Extraction speed 1.8 X
     Track quality 99.9 %
     Test CRC AC808E72
     Copy CRC AC808E72
     Track not present in AccurateRip database
     Copy OK

Track 12

     Filename C:\EAC Rips\Aldebert - Aldebert {2017 CD #NAB 1713} [FLAC]\12 Track12.wav

     Pre-gap length  0:00:02.00

     Peak level 97.9 %
     Extraction speed 2.1 X
     Track quality 100.0 %
     Test CRC BE6BB03F
     Copy CRC BE6BB03F
     Track not present in AccurateRip database
     Copy OK

Track 13

     Filename C:\EAC Rips\Aldebert - Aldebert {2017 CD #NAB 1713} [FLAC]\13 Track13.wav

     Pre-gap length  0:00:02.00

     Peak level 97.9 %
     Extraction speed 2.2 X
     Track quality 100.0 %
     Test CRC 5320D2EE
     Copy CRC 5320D2EE
     Track not present in AccurateRip database
     Copy OK

Track 14

     Filename C:\EAC Rips\Aldebert - Aldebert {2017 CD #NAB 1713} [FLAC]\14 Track14.wav

     Pre-gap length  0:00:02.00

     Peak level 97.9 %
     Extraction speed 2.2 X
     Track quality 100.0 %
     Test CRC 61E86BE3
     Copy CRC 61E86BE3
     Track not present in AccurateRip database
     Copy OK

Track 15

     Filename C:\EAC Rips\Aldebert - Aldebert {2017 CD #NAB 1713} [FLAC]\15 Track15.wav

     Pre-gap length  0:00:02.00

     Peak level 97.9 %
     Extraction speed 2.2 X
     Track quality 100.0 %
     Test CRC CDDA5FE5
     Copy CRC CDDA5FE5
     Track not present in AccurateRip database
     Copy OK

Track 16

     Filename C:\EAC Rips\Aldebert - Aldebert {2017 CD #NAB 1713} [FLAC]\16 Track16.wav

     Pre-gap length  0:00:02.00

     Peak level 97.9 %
     Extraction speed 2.0 X
     Track quality 99.9 %
     Test CRC BCF90B02
     Copy CRC BCF90B02
     Track not present in AccurateRip database
     Copy OK

Track 17

     Filename C:\EAC Rips\Aldebert - Aldebert {2017 CD #NAB 1713} [FLAC]\17 Track17.wav

     Pre-gap length  0:00:02.00

     Peak level 97.9 %
     Extraction speed 2.4 X
     Track quality 100.0 %
     Test CRC 49AD1FB1
     Copy CRC 49AD1FB1
     Track not present in AccurateRip database
     Copy OK

Track 18

     Filename C:\EAC Rips\Aldebert - Aldebert {2017 CD #NAB 1713} [FLAC]\18 Track18.wav

     Pre-gap length  0:00:02.00

     Peak level 97.9 %
     Extraction speed 2.5 X
     Track quality 100.0 %
     Test CRC FC5944EF
     Copy CRC FC5944EF
     Track not present in AccurateRip database
     Copy OK

Track 19

     Filename C:\EAC Rips\Aldebert - Aldebert {2017 CD #NAB 1713} [FLAC]\19 Track19.wav

     Pre-gap length  0:00:02.00

     Peak level 97.9 %
     Extraction speed 2.5 X
     Track quality 100.0 %
     Test CRC 675469F5
     Copy CRC 675469F5
     Track not present in AccurateRip database
     Copy OK

Track 20

     Filename C:\EAC Rips\Aldebert - Aldebert {2017 CD #NAB 1713} [FLAC]\20 Track20.wav

     Pre-gap length  0:00:02.00

     Peak level 97.9 %
     Extraction speed 2.2 X
     Track quality 99.9 %
     Test CRC 7E8146A2
     Copy CRC 7E8146A2
     Track not present in AccurateRip database
     Copy OK

Track 21

     Filename C:\EAC Rips\Aldebert - Aldebert {2017 CD #NAB 1713} [FLAC]\21 Track21.wav

     Pre-gap length  0:00:02.00

     Peak level 97.9 %
     Extraction speed 2.7 X
     Track quality 100.0 %
     Test CRC 5B8D3CA4
     Copy CRC 5B8D3CA4
     Track not present in AccurateRip database
     Copy OK

None of the tracks are present in the AccurateRip database

No errors occurred

End of status report

---- CUETools DB Plugin V2.1.6

[CTDB TOCID: xV3cCzVtd6O6jp_jcosumSbCENY-] disk not present in database
Submit result: The operation has timed out

==== Log checksum F66CC31C0805715DA7E04446213B4C66F517AF116C2FFD23421AA2D783719D41 ====
Код: Выделить всё
REM DATE 2017
REM DISCID 2F124415
REM COMMENT "ExactAudioCopy v1.3"
FILE "01 Track01.wav" WAVE
  TRACK 01 AUDIO
    INDEX 01 00:00:00
  TRACK 02 AUDIO
    INDEX 00 03:33:38
FILE "02 Track02.wav" WAVE
    INDEX 01 00:00:00
  TRACK 03 AUDIO
    INDEX 00 03:26:57
FILE "03 Track03.wav" WAVE
    INDEX 01 00:00:00
  TRACK 04 AUDIO
    INDEX 00 03:30:21
FILE "04 Track04.wav" WAVE
    INDEX 01 00:00:00
  TRACK 05 AUDIO
    INDEX 00 03:55:05
FILE "05 Track05.wav" WAVE
    INDEX 01 00:00:00
  TRACK 06 AUDIO
    INDEX 00 05:47:18
FILE "06 Track06.wav" WAVE
    INDEX 01 00:00:00
  TRACK 07 AUDIO
    INDEX 00 03:19:71
FILE "07 Track07.wav" WAVE
    INDEX 01 00:00:00
  TRACK 08 AUDIO
    INDEX 00 03:14:62
FILE "08 Track08.wav" WAVE
    INDEX 01 00:00:00
  TRACK 09 AUDIO
    INDEX 00 04:06:31
FILE "09 Track09.wav" WAVE
    INDEX 01 00:00:00
  TRACK 10 AUDIO
    INDEX 00 03:26:17
FILE "10 Track10.wav" WAVE
    INDEX 01 00:00:00
  TRACK 11 AUDIO
    INDEX 00 02:55:08
FILE "11 Track11.wav" WAVE
    INDEX 01 00:00:00
  TRACK 12 AUDIO
    INDEX 00 03:56:53
FILE "12 Track12.wav" WAVE
    INDEX 01 00:00:00
  TRACK 13 AUDIO
    INDEX 00 03:17:01
FILE "13 Track13.wav" WAVE
    INDEX 01 00:00:00
  TRACK 14 AUDIO
    INDEX 00 04:02:67
FILE "14 Track14.wav" WAVE
    INDEX 01 00:00:00
  TRACK 15 AUDIO
    INDEX 00 03:12:34
FILE "15 Track15.wav" WAVE
    INDEX 01 00:00:00
  TRACK 16 AUDIO
    INDEX 00 02:45:06
FILE "16 Track16.wav" WAVE
    INDEX 01 00:00:00
  TRACK 17 AUDIO
    INDEX 00 03:19:11
FILE "17 Track17.wav" WAVE
    INDEX 01 00:00:00
  TRACK 18 AUDIO
    INDEX 00 03:24:42
FILE "18 Track18.wav" WAVE
    INDEX 01 00:00:00
  TRACK 19 AUDIO
    INDEX 00 04:26:72
FILE "19 Track19.wav" WAVE
    INDEX 01 00:00:00
  TRACK 20 AUDIO
    INDEX 00 03:51:68
FILE "20 Track20.wav" WAVE
    INDEX 01 00:00:00
  TRACK 21 AUDIO
    INDEX 00 03:39:59
FILE "21 Track21.wav" WAVE
    INDEX 01 00:00:00
Код: Выделить всё
-----------------------

DON'T MODIFY THIS FILE

-----------------------

PERFORMER: auCDtect Task Manager, ver. 1.6.0 RC1 build 1.6.0.1
Copyright (c) 2008-2010 y-soft. All rights reserved
[url=http://y-soft.org]http://y-soft.org[/url]

ANALYZER: auCDtect: CD records authenticity detector, version 0.8.2
Copyright (c) 2004 Oleg Berngardt. All rights reserved.
Copyright (c) 2004 Alexander Djourik. All rights reserved.

FILE: 07-Saint' Nitouche.flac
  Size: 23811000 Hash: F78C81DCCBA4572CB4F4EC4621FE3B77 Accuracy: -m0
  Conclusion: CDDA 100%
  Signature: 9AFDF75BF9E5CD5BA7F13F5BB905DC7D679F7F35
FILE: 06-La valse des maîtresses.flac
  Size: 21827496 Hash: 017C2538B553B5AD53367E2B725E0EC8 Accuracy: -m0
  Conclusion: CDDA 99%
  Signature: FD771E73FFA9853FC5366857CC1B3CCBB71CDD3A
FILE: 05-La plage (live 2010).flac
  Size: 40431724 Hash: B0ED0A05A9114BB9DB4AE31E6732C084 Accuracy: -m0
  Conclusion: CDDA 100%
  Signature: BEE7436B776657F94AEDABF79F332C63F53DF1B4
FILE: 04-Mon homonyme.flac
  Size: 26076987 Hash: F61E7F208318CF8D56D4459E630A7A1E Accuracy: -m0
  Conclusion: CDDA 100%
  Signature: 52296B3579B3A40EC73A7949DCB748D004F9C031
FILE: 03-L'homme Songe.flac
  Size: 23623323 Hash: 8F412C558DF27EFE57CE8D7737A238B1 Accuracy: -m0
  Conclusion: CDDA 100%
  Signature: 8E084890707C87E6D440073B041BC870CBBF7C22
FILE: 02-Les coups de pieds à la lune.flac
  Size: 24083537 Hash: 374866EF25E9CFB63AF52AF08F5089A2 Accuracy: -m0
  Conclusion: CDDA 100%
  Signature: 7629B15F2A17030555F4BDB30200F0328DEFB148
FILE: 01-Carpe Diem.flac
  Size: 23952777 Hash: BEE4397DDA5E18798D8FC8EA5593BF75 Accuracy: -m0
  Conclusion: CDDA 100%
  Signature: C23FF0317F8E38EA30320FCEFEF98B24F714E387
FILE: 21-Ma vie à l'envers.flac
  Size: 27347757 Hash: 6B95D9210A7B1CE0DC1A4D67E10DB584 Accuracy: -m0
  Conclusion: CDDA 100%
  Signature: E3B5AE364856DFBAF4943E5C4AB66560D8F6301C
FILE: 20-Hypocondriaque.flac
  Size: 27009368 Hash: 30AA476094FDCD90A726C52180667BCF Accuracy: -m0
  Conclusion: CDDA 100%
  Signature: 2C5A1DB2DFFE5ADF57F47F8F838ED5ECD2BC4EC9
FILE: 19-Vivement la fin.flac
  Size: 29954955 Hash: 6ADCD3A07614BA3F8A099ECF9DFAC408 Accuracy: -m0
  Conclusion: CDDA 100%
  Signature: 7F8A80DA1790E758FBD7B84C7F3D380489075C7A
FILE: 18-La dame aux Camel light.flac
  Size: 28898219 Hash: E80C1E1DF413524CF48560717BE0E7EA Accuracy: -m0
  Conclusion: CDDA 100%
  Signature: 7B073C0F80518B7DAB26FFF6F93A23A879F1546E
FILE: 17-Indélébile.flac
  Size: 20893428 Hash: 5793829606DF33ED8B1634EBC566BE98 Accuracy: -m0
  Conclusion: CDDA 100%
  Signature: A08F54624D8D5DC39AA83B82150C9D307C94C185
FILE: 16-La complainte l'ex fumeur.flac
  Size: 19637294 Hash: 2922003E2C14CC8686BF1E76D7A98661 Accuracy: -m0
  Conclusion: CDDA 100%
  Signature: A0D24589BF0240205B424A66BFEE99184342DF29
FILE: 15-La méthode Couette.flac
  Size: 19291900 Hash: B741ADFCFA85B9B6BA1F5580E72A3970 Accuracy: -m0
  Conclusion: CDDA 100%
  Signature: 3F657D0E3C24B82C6C87B3E69A37B0281D4EA49F
FILE: 14-Marabout.flac
  Size: 20387440 Hash: 47F6545B5E5C5FA96B41632117C34DB6 Accuracy: -m0
  Conclusion: CDDA 100%
  Signature: 03402291F88E61A3F05D3CE53AC75EAF35F51630
FILE: 13-L'inventaire.flac
  Size: 29223496 Hash: 4B432D20DEDE00346EB1143FA023599C Accuracy: -m0
  Conclusion: CDDA 100%
  Signature: F6E485401F08B0AE57F8831020C44FFE85892DDB
FILE: 12-Les amis.flac
  Size: 21577739 Hash: F48723A162978890AD1437038289C59F Accuracy: -m0
  Conclusion: CDDA 100%
  Signature: ECD65F2AFDE9279E4D8CB03D7A5C87FDFDD5418E
FILE: 11-C'est comment là-haut.flac
  Size: 25886890 Hash: C167AFAF4BBE29821AD881A0341E29CA Accuracy: -m0
  Conclusion: CDDA 100%
  Signature: B909393B3F754A6538AC33B08B7EAF5364A9E077
FILE: 10-Adulescent.flac
  Size: 19956054 Hash: DE53D06D1879224DD91AFCE2EB6EEF1E Accuracy: -m0
  Conclusion: CDDA 100%
  Signature: 251BCE5C3E596FB09E1235933FF7950688472659
FILE: 09-Hold-Up.flac
  Size: 20119592 Hash: 25B7C961EFB74971C1C327CA3F0EB910 Accuracy: -m0
  Conclusion: CDDA 100%
  Signature: AA272172BB0CBA215B946BAABF67B7217FE0AF23
FILE: 08-Rentrée des classes.flac
  Size: 29807222 Hash: CFC212688A25E1C821C8CE89F92168DE Accuracy: -m0
  Conclusion: CDDA 100%
  Signature: 8C0949E3736376749A85A8B8B49C02171A4BD678

#7
Код: Выделить всё
[b]Поглощение/вытеснение [/b]
[b]Только с согласия релизера[/b]
[b][u][i]Pashketan[/b][/i][/u]
Не забывайте говорить Спасибо. Не уходите с раздачи!   
Торрент: Зарегистрирован [20 сен 2018, 19:04] Для скачивания .torrent
необходима регистрация
Или скачать с помощью
MediaGet
Статус:
Проверен
 
.torrent скачан: 0 раз
Хэш: 94c2a060205b174064804cee479ddb8a3abee2b7
Размер: 500.88 МБ (525 210 249 байт)
   Стать Автором раздачи
   
Цитата
  • Похожие торренты
    Ответы
    Просмотры
    Последнее сообщение

Вернуться в Music from other genres

Кто сейчас на конференции

Сейчас эту тему просматривают: нет зарегистрированных пользователей и гости: 1