Lio - Je Suis Comme Ca (2000) [FLAC|Lossless|image + .cue] <French, Pop, Chanson, Jazz>

 Статистика раздачи 
Размер: 242.36 МБ   |  Зарегистрирован: 09 сен 2018, 17:29   |   .torrent скачан: 0 раз
Сидеров: 4  [ 0 байт/сек ]     Личеров: 1  [ 0 байт/сек ]  
  
Аватара пользователя
 
Раздал: 1.55 ТБ
Скачал: 30.55 ГБ
Ратио: 52.013
Сообщения: 179542
Стаж: 2 года 5 месяцев 15 дней

Lio - Je Suis Comme Ca (2000)

Жанр: French, Pop, Chanson, Jazz
Издание: M10 ‎ - 320152
Источник: Senor Peligro
Продолжительность: 00:40:55

Кодек: FLAC
Битрейт: Lossless
Тип рипа: image + .cue

Треклист:
1 C'était L'été 2:13
2 Dieu Et Diable (En Duo Avec Guy Marchand) 2:30
3 Je Suis Comme Je Suis 3:59
4 Il Y A La Nuit 3:21
5 Tu Peux Bien T'en Aller 2:38
6 Verticaux 2:37
7 Chant Song 3:55
8 Embrasse-moi 2:49
9 Quand La Ville Est Un Collier 2:36
10 Chacun Son Cirque 2:13
11 Il A Tourné Autour De Moi 2:31
12 Les Feuilles Mortes 3:04
13 Au Coin De La Rue Du Jour 3:07
14 À Quoi Rêvais-tu? 3:03
Состав:[b]
Accordion – Francis VarisCello – Jean-Philippe AudinClarinet – Dominique VidalDouble Bass – Michel PeyratoutDrums – Yves SannaPiano – Bruno FontaineViola – Marc DesmonsViolin – Christophe Guiot, Véronique Marcel
Код: Выделить всё
Exact Audio Copy V1.3 from 2. September 2016

EAC extraction logfile from 8. September 2018, 17:39

Lio / Je Suis Comme Ca

Used drive  : HL-DT-STDVDRAM GT70N   Adapter: 1  ID: 0

Read mode               : Secure
Utilize accurate stream : Yes
Defeat audio cache      : Yes
Make use of C2 pointers : No

Read offset correction                      : 103
Overread into Lead-In and Lead-Out          : No
Fill up missing offset samples with silence : Yes
Delete leading and trailing silent blocks   : No
Null samples used in CRC calculations       : Yes
Used interface                              : Native Win32 interface for Win NT & 2000

Used output format              : User Defined Encoder
Selected bitrate                : 1024 kBit/s
Quality                         : High
Add ID3 tag                     : No
Command line compressor         : C:\Program Files (x86)\Exact Audio Copy\FLAC\FLAC.EXE
Additional command line options : -8 -V -T "ARTIST=%artist%" -T "TITLE=%title%" -T "ALBUM=%albumtitle%" -T "DATE=%year%" -T "TRACKNUMBER=%tracknr%" -T "GENRE=%genre%" -T "COMMENT=%comment%" -T "BAND=%albuminterpret%" -T "ALBUMARTIST=%albuminterpret%" -T "COMPOSER=%composer%" %haslyrics%--tag-from-file=LYRICS="%lyricsfile%"%haslyrics% -T "DISCNUMBER=%cdnumber%" -T "TOTALDISCS=%totalcds%" -T "TOTALTRACKS=%numtracks%" %hascover%--picture="%coverfile%"%hascover% %source% -o %dest%

TOC of the extracted CD

     Track |   Start  |  Length  | Start sector | End sector
    ---------------------------------------------------------
        1  |  0:00.00 |  2:14.08 |         0    |    10057
        2  |  2:14.08 |  2:30.71 |     10058    |    21378
        3  |  4:45.04 |  3:59.65 |     21379    |    39368
        4  |  8:44.69 |  3:21.53 |     39369    |    54496
        5  | 12:06.47 |  2:40.70 |     54497    |    66566
        6  | 14:47.42 |  2:39.00 |     66567    |    78491
        7  | 17:26.42 |  3:57.62 |     78492    |    96328
        8  | 21:24.29 |  2:50.02 |     96329    |   109080
        9  | 24:14.31 |  2:38.37 |    109081    |   120967
       10  | 26:52.68 |  2:14.48 |    120968    |   131065
       11  | 29:07.41 |  2:31.17 |    131066    |   142407
       12  | 31:38.58 |  3:04.46 |    142408    |   156253
       13  | 34:43.29 |  3:07.65 |    156254    |   170343
       14  | 37:51.19 |  3:03.58 |    170344    |   184126

Range status and errors

Selected range

     Filename C:\Lio - Je Suis Comme Ca (2000)\Lio - Je Suis Comme Ca.wav

     Peak level 97.7 %
     Extraction speed 4.4 X
     Range quality 100.0 %
     Test CRC 86FC242E
     Copy CRC 86FC242E
     Copy OK

No errors occurred

AccurateRip summary

Track  1  accurately ripped (confidence 4)  [33EC3E46]  (AR v2)
Track  2  accurately ripped (confidence 4)  [0D2F37F3]  (AR v2)
Track  3  accurately ripped (confidence 4)  [7E071BA9]  (AR v2)
Track  4  accurately ripped (confidence 4)  [2ABD3DE8]  (AR v2)
Track  5  accurately ripped (confidence 4)  [C4721EF8]  (AR v2)
Track  6  accurately ripped (confidence 3)  [54AD7238]  (AR v2)
Track  7  accurately ripped (confidence 4)  [DFF1F6F5]  (AR v2)
Track  8  accurately ripped (confidence 3)  [3E45E81C]  (AR v2)
Track  9  accurately ripped (confidence 3)  [650B1995]  (AR v2)
Track 10  accurately ripped (confidence 3)  [5EA966B3]  (AR v2)
Track 11  accurately ripped (confidence 3)  [55B88CB7]  (AR v2)
Track 12  accurately ripped (confidence 4)  [28B23BB9]  (AR v2)
Track 13  accurately ripped (confidence 3)  [B8B9E94D]  (AR v2)
Track 14  accurately ripped (confidence 3)  [E4DEB240]  (AR v2)

All tracks accurately ripped

End of status report

---- CUETools DB Plugin V2.1.6

[CTDB TOCID: FEYvBsESmvT0GrqfL4aZNKFGJmA-] database access error: Невозможно разрешить удаленное имя: 'db.cuetools.net'

==== Log checksum 5DB1C79315AB4ADA7532128EB70CA0BA053E36A6F02F55C5D22553EE86BFCA70 ====
Код: Выделить всё
REM GENRE Chanson
REM DATE 2000
REM DISCID CA09970E
REM COMMENT "ExactAudioCopy v1.3"
PERFORMER "Lio"
TITLE "Je Suis Comme Ca"
REM COMPOSER ""
FILE "Lio - Je Suis Comme Ca.flac" WAVE
  TRACK 01 AUDIO
    TITLE "C'etait comme ca"
    PERFORMER "Lio"
    REM COMPOSER ""
    INDEX 01 00:00:00
  TRACK 02 AUDIO
    TITLE "Dieu et Diable"
    PERFORMER "Lio"
    REM COMPOSER ""
    INDEX 01 02:14:08
  TRACK 03 AUDIO
    TITLE "Je suis comme je suis"
    PERFORMER "Lio"
    REM COMPOSER ""
    INDEX 01 04:45:04
  TRACK 04 AUDIO
    TITLE "Il y a la nuit"
    PERFORMER "Lio"
    REM COMPOSER ""
    INDEX 01 08:44:69
  TRACK 05 AUDIO
    TITLE "Tu peux bien t'en aller"
    PERFORMER "Lio"
    REM COMPOSER ""
    INDEX 01 12:06:47
  TRACK 06 AUDIO
    TITLE "Verticaux"
    PERFORMER "Lio"
    REM COMPOSER ""
    INDEX 01 14:47:42
  TRACK 07 AUDIO
    TITLE "Chant song"
    PERFORMER "Lio"
    REM COMPOSER ""
    INDEX 01 17:26:42
  TRACK 08 AUDIO
    TITLE "Embrasse-moi"
    PERFORMER "Lio"
    REM COMPOSER ""
    INDEX 01 21:24:29
  TRACK 09 AUDIO
    TITLE "Quand la vie est un collier"
    PERFORMER "Lio"
    REM COMPOSER ""
    INDEX 01 24:14:31
  TRACK 10 AUDIO
    TITLE "Chacun son cirque"
    PERFORMER "Lio"
    REM COMPOSER ""
    INDEX 01 26:52:68
  TRACK 11 AUDIO
    TITLE "Il a tourne autour de moi"
    PERFORMER "Lio"
    REM COMPOSER ""
    INDEX 01 29:07:41
  TRACK 12 AUDIO
    TITLE "Les feuilles mortes"
    PERFORMER "Lio"
    REM COMPOSER ""
    INDEX 01 31:38:58
  TRACK 13 AUDIO
    TITLE "Au coin de la rue du jour"
    PERFORMER "Lio"
    REM COMPOSER ""
    INDEX 01 34:43:29
  TRACK 14 AUDIO
    TITLE "A quoi revais-tu ?"
    PERFORMER "Lio"
    REM COMPOSER ""
    INDEX 01 37:51:19
Код: Выделить всё
-----------------------

DON'T MODIFY THIS FILE

-----------------------

PERFORMER: auCDtect Task Manager, ver. 1.6.0 RC1 build 1.6.0.1
Copyright (c) 2008-2010 y-soft. All rights reserved
[url=http://y-soft.org]http://y-soft.org[/url]

ANALYZER: auCDtect: CD records authenticity detector, version 0.8.2
Copyright (c) 2004 Oleg Berngardt. All rights reserved.
Copyright (c) 2004 Alexander Djourik. All rights reserved.

FILE: Lio - Je Suis Comme Ca.flac
  Size: 253038806 Hash: 4F1057610E92C27406F36433061BD4D4 Accuracy: -m0
  Conclusion: CDDA 99%
  Signature: 18FDA2EA75F3B6BBF39FD7085106CBE2ACB06A93

#7
Код: Выделить всё
Поглощение/вытеснение
[b]Только с согласия релизера[/b]
[b][u][i]Чех[/b][/i][/u]
Не забывайте говорить Спасибо. Не уходите с раздачи!   
Торрент: Зарегистрирован [09 сен 2018, 17:29] Для скачивания .torrent
необходима регистрация
Или скачать с помощью
MediaGet
Статус:
Проверен
 
.torrent скачан: 0 раз
Хэш: 7fb01588cd7c07c342d14e4844725d5088528f2c
Размер: 242.36 МБ (254 130 941 байт)
   Стать Автором раздачи
   
Цитата
  • Похожие торренты
    Ответы
    Просмотры
    Последнее сообщение

Вернуться в Music from other genres

Кто сейчас на конференции

Сейчас эту тему просматривают: нет зарегистрированных пользователей и гости: 1