Одинокий рейнджер / The Lone Ranger (Гор Вербински / Gore Verbinski) [2013, США, боевик, приключения, комедия, вестерн, BDRemux 1080p] Dub + 3x AVO + Original (Eng) + Sub (Rus, Eng)

 Статистика раздачи 
Размер: 49.97 ГБ   |  Зарегистрирован: 16 сен 2018, 19:54   |   .torrent скачан: 0 раз
Сидеров: 18  [ 0 байт/сек ]     Личеров: 6  [ 0 байт/сек ]  
  
Аватара пользователя
 
Раздал: 0 байт
Скачал: 0 байт
Ратио: Inf.
Сообщения: 176511
Стаж: 7 лет 7 месяцев 8 дней
Откуда: Rossiya

Одинокий рейнджер / The Lone Ranger



Страна: США
Студия: Blind Wink Productions, Classic Media, Infinitum Nihil Production, Jerry Bruckheimer Films
Жанр: боевик, приключения, комедия, вестерн
Год выпуска: 2013
Продолжительность: 02:29:33

Перевод 1: Профессиональный (дублированный) Blu-ray
Перевод 2: Авторский (одноголосый закадровый) Ю. Сербин
Перевод 3: Авторский (одноголосый закадровый) Л. Володарский
Перевод 4: Авторский (одноголосый закадровый) А. Карповский
Субтитры: русские (forced, full), английские (forced, full, SDH)
Оригинальная аудиодорожка: английский

Режиссер: Гор Вербински / Gore Verbinski
В ролях: Джонни Депп, Хелена Бонем Картер, Арми Хаммер, Уильям Фихтнер, Том Уилкинсон, Бэрри Пеппер, Джеймс Бэдж Дэйл, Рут Уилсон, Мэйсон Кук, Мэтт О`Лири

Описание: История блюстителя закона Джона Рида, который с помощью индейца Тонто стал легендарным мстителем в маске, стоящим на защите справедливости. Тонто с юмором и небылицами повествует о тех приключениях, которые пришлось пережить двум непохожим друг на друга героям, сведенным судьбой для того, чтобы вместе сражаться против общего врага. Им приходится противостоять жадности и коррупции во времена, когда появление первых железных дорог изменило представление о власти и могуществе в мире.



Тип релиза: BDRemux 1080p [The Lone Ranger 2013 1080p EUR Blu-ray AVC DTS-HD MA 7.1-HDCLUB]
Контейнер: MKV
Видео: MPEG-4 AVC / 26136 kbps / 1920x1080 / 23,976 fps / 16:9 / High Profile 4.1
Аудио 1: Russian AC3 / 5.1 / 48 kHz / 640 kbps / 16 bits |Dub, Blu-ray|
Аудио 2: Russian DTS-HD Master Audio / 7.1 / 48 kHz / 5183 kbps / 24 bits (DTS Core: 5.1 / 48 kHz / 1509 kbps / 24 bits) |Ю. Сербин|
Аудио 3: Russian DTS-HD Master Audio / 7.1 / 48 kHz / 5187 kbps / 24 bits (DTS Core: 5.1 / 48 kHz / 1509 kbps / 24 bits) |Л. Володарский|
Аудио 4: Russian DTS-HD Master Audio / 7.1 / 48 kHz / 5189 kbps / 24 bits (DTS Core: 5.1 / 48 kHz / 1509 kbps / 24 bits) |А. Карповский|
Аудио 5: English DTS-HD Master Audio / 7.1 / 48 kHz / 5730 kbps / 24 bits (DTS Core: 5.1 / 48 kHz / 1509 kbps / 24 bits) |original|
Формат субтитров: softsub [SRT]
Код:
Код: Выделить всёОбщее
Уникальный идентификатор                 : 186180116651694833086887093698368986101 (0x8C10FC75B23714739EC27219D5FD5BF5)
Полное имя                               : G:HDОдинокий рейнджер.2013.Blu-Ray.Remux.(1080p).mkv
Формат                                   : Matroska
Версия формата                           : Version 4 / Version 2
Размер файла                             : 50,0 Гбайт
Продолжительность                        : 2 ч. 29 м.
Режим общего битрейта                    : Переменный
Общий поток                              : 47,8 Мбит/сек
Дата кодирования                         : UTC 2017-11-19 06:52:27
Программа кодирования                    : mkvmerge v18.0.0 ('Apricity') 64-bit
Библиотека кодирования                   : libebml v1.3.5 + libmatroska v1.4.8
Attachments                              : poster.jpg
Видео
Идентификатор                            : 1
Формат                                   : AVC
Формат/Информация                        : Advanced Video Codec
Профиль формата                          : High@L4.1
Настройки формата                        : CABAC / 4 Ref Frames
Параметр CABAC формата                   : Да
Параметр RefFrames формата               : 4 кадра
Идентификатор кодека                     : V_MPEG4/ISO/AVC
Продолжительность                        : 2 ч. 29 м.
Вид битрейта                             : Переменный
Битрейт                                  : 25,9 Мбит/сек
Максимальный битрейт                     : 35,0 Мбит/сек
Ширина                                   : 1920 пикселей
Высота                                   : 1080 пикселей
Соотношение сторон                       : 16:9
Режим частоты кадров                     : Постоянный
Частота кадров                           : 23,976 (24000/1001) кадра/сек
Цветовое пространство                    : YUV
Субдискретизация насыщенности            : 4:2:0
Битовая глубина                          : 8 бит
Тип развёртки                            : Прогрессивная
Бит/(Пиксели*Кадры)                      : 0.521
Размер потока                            : 27,1 Гбайт (54%)
Default                                  : Да
Forced                                   : Нет
Аудио #1
Идентификатор                            : 2
Формат                                   : AC-3
Формат/Информация                        : Audio Coding 3
Идентификатор кодека                     : A_AC3
Продолжительность                        : 2 ч. 29 м.
Вид битрейта                             : Постоянный
Битрейт                                  : 640 Кбит/сек
Каналы                                   : 6 каналов
Расположение каналов                     : Front: L C R, Side: L R, LFE
Частота                                  : 48,0 КГц
Частота кадров                           : 31,250 кадров/сек (1536 SPF)
Битовая глубина                          : 16 бит
Метод сжатия                             : С потерями
Размер потока                            : 685 Мбайт (1%)
Заголовок                                : Dub, Blu-ray
Язык                                     : Russian
ServiceKind/String                       : Complete Main
Default                                  : Да
Forced                                   : Нет
Аудио #2
Идентификатор                            : 3
Формат                                   : DTS
Формат/Информация                        : Digital Theater Systems
Профиль формата                          : MA / Core
Идентификатор кодека                     : A_DTS
Продолжительность                        : 2 ч. 29 м.
Вид битрейта                             : Переменный / Постоянный
Битрейт                                  : 5183 Кбит/сек / 1509 Кбит/сек
Каналы                                   : 8 каналов / 6 каналов
Расположение каналов                     : Front: L C R, Side: L R, Back: L R, LFE / Front: L C R, Side: L R, LFE
Частота                                  : 48,0 КГц
Частота кадров                           : 93,750 кадра/сек (512 SPF)
Битовая глубина                          : 24 бит
Метод сжатия                             : Без потерь / Lossy
Размер потока                            : 5,41 Гбайт (11%)
Заголовок                                : Ю. Сербин
Язык                                     : Russian
Default                                  : Нет
Forced                                   : Нет
Аудио #3
Идентификатор                            : 4
Формат                                   : DTS
Формат/Информация                        : Digital Theater Systems
Профиль формата                          : MA / Core
Идентификатор кодека                     : A_DTS
Продолжительность                        : 2 ч. 29 м.
Вид битрейта                             : Переменный / Постоянный
Битрейт                                  : 5187 Кбит/сек / 1509 Кбит/сек
Каналы                                   : 8 каналов / 6 каналов
Расположение каналов                     : Front: L C R, Side: L R, Back: L R, LFE / Front: L C R, Side: L R, LFE
Частота                                  : 48,0 КГц
Частота кадров                           : 93,750 кадра/сек (512 SPF)
Битовая глубина                          : 24 бит
Метод сжатия                             : Без потерь / Lossy
Размер потока                            : 5,42 Гбайт (11%)
Заголовок                                : Л. Володарский
Язык                                     : Russian
Default                                  : Нет
Forced                                   : Нет
Аудио #4
Идентификатор                            : 5
Формат                                   : DTS
Формат/Информация                        : Digital Theater Systems
Профиль формата                          : MA / Core
Идентификатор кодека                     : A_DTS
Продолжительность                        : 2 ч. 29 м.
Вид битрейта                             : Переменный / Постоянный
Битрейт                                  : 5189 Кбит/сек / 1509 Кбит/сек
Каналы                                   : 8 каналов / 6 каналов
Расположение каналов                     : Front: L C R, Side: L R, Back: L R, LFE / Front: L C R, Side: L R, LFE
Частота                                  : 48,0 КГц
Частота кадров                           : 93,750 кадра/сек (512 SPF)
Битовая глубина                          : 24 бит
Метод сжатия                             : Без потерь / Lossy
Размер потока                            : 5,42 Гбайт (11%)
Заголовок                                : А. Карповский
Язык                                     : Russian
Default                                  : Нет
Forced                                   : Нет
Аудио #5
Идентификатор                            : 6
Формат                                   : DTS
Формат/Информация                        : Digital Theater Systems
Профиль формата                          : MA / Core
Идентификатор кодека                     : A_DTS
Продолжительность                        : 2 ч. 29 м.
Вид битрейта                             : Переменный / Постоянный
Битрейт                                  : 5730 Кбит/сек / 1509 Кбит/сек
Каналы                                   : 8 каналов / 6 каналов
Расположение каналов                     : Front: L C R, Side: L R, Back: L R, LFE / Front: L C R, Side: L R, LFE
Частота                                  : 48,0 КГц
Частота кадров                           : 93,750 кадра/сек (512 SPF)
Битовая глубина                          : 24 бит
Метод сжатия                             : Без потерь / Lossy
Размер потока                            : 5,99 Гбайт (12%)
Язык                                     : English
Default                                  : Нет
Forced                                   : Нет
Текст #1
Идентификатор                            : 7
Формат                                   : UTF-8
Идентификатор кодека                     : S_TEXT/UTF8
Идентификатор кодека/Информация          : UTF-8 Plain Text
Продолжительность                        : 5 с. 547 мс.
Битрейт                                  : 106 бит/сек
ElementCount                             : 2
Размер потока                            : 74,0 байт (0%)
Заголовок                                : forced
Язык                                     : Russian
Default                                  : Да
Forced                                   : Нет
Текст #2
Идентификатор                            : 8
Формат                                   : UTF-8
Идентификатор кодека                     : S_TEXT/UTF8
Идентификатор кодека/Информация          : UTF-8 Plain Text
Продолжительность                        : 2 ч. 21 м.
Битрейт                                  : 57 бит/сек
ElementCount                             : 1408
Размер потока                            : 59,4 Кбайт (0%)
Заголовок                                : full
Язык                                     : Russian
Default                                  : Нет
Forced                                   : Нет
Текст #3
Идентификатор                            : 9
Формат                                   : UTF-8
Идентификатор кодека                     : S_TEXT/UTF8
Идентификатор кодека/Информация          : UTF-8 Plain Text
Продолжительность                        : 5 с. 505 мс.
Битрейт                                  : 68 бит/сек
ElementCount                             : 2
Размер потока                            : 47,0 байт (0%)
Заголовок                                : forced
Язык                                     : English
Default                                  : Нет
Forced                                   : Нет
Текст #4
Идентификатор                            : 10
Формат                                   : UTF-8
Идентификатор кодека                     : S_TEXT/UTF8
Идентификатор кодека/Информация          : UTF-8 Plain Text
Продолжительность                        : 2 ч. 19 м.
Битрейт                                  : 36 бит/сек
ElementCount                             : 1567
Размер потока                            : 37,0 Кбайт (0%)
Заголовок                                : full
Язык                                     : English
Default                                  : Нет
Forced                                   : Нет
Текст #5
Идентификатор                            : 11
Формат                                   : UTF-8
Идентификатор кодека                     : S_TEXT/UTF8
Идентификатор кодека/Информация          : UTF-8 Plain Text
Продолжительность                        : 2 ч. 20 м.
Битрейт                                  : 43 бит/сек
ElementCount                             : 1948
Размер потока                            : 44,5 Кбайт (0%)
Заголовок                                : SDH
Язык                                     : English
Default                                  : Нет
Forced                                   : Нет
Меню
00:00:00.000                             : en:Tonto's Story
00:08:16.120                             : en:The Train
00:13:38.776                             : en:The Great Escape
00:24:51.406                             : en:Rebecca
00:29:03.032                             : en:The Forces of Evil
00:32:05.840                             : en:The Manhunt
00:40:32.012                             : en:Trading with the Dead
00:45:29.643                             : en:Unbalanced
00:53:29.664                             : en:Red's
01:01:05.662                             : en:The Natives Are Coming
01:10:01.614                             : en:The Valley of Tears
01:16:12.317                             : en:Tonto's Past
01:24:45.455                             : en:Trapped
01:28:39.731                             : en:At the River's Start
01:35:35.187                             : en:All Could Be Yours
01:41:13.984                             : en:Deceit
01:46:35.806                             : en:The Mine
01:50:02.178                             : en:The Natives Attack
01:53:55.203                             : en:I'd Rather Be an Outlaw
01:56:15.259                             : en:The Railroad Is Finished
02:01:51.095                             : en:This Is a Train Robbery
02:12:07.210                             : en:Bad Trade
02:17:13.934                             : en:Allies
02:20:20.286                             : en:End Credits



Цитата:

За перевода Сербина спасибо форуму е180: dvd100, oleg-k, Nadoelo, Jiraya87, пуля, MyxAmoP, denis_mgn_1987, Некрасов, Guyver, luka69, urassiks, xerman13, olegsoleg, Letyoha3, SavineX78, safreks, muhadark1982, Chistobaev, mastaLoki1982, dirRamistide, GKillah, Iceman2, vova2, AlexNT, YoGuRt-82, Ochkarik1, markinscor, Nick

Торрент-файл перезалит 26.11.2017. Добавлены переводы Л. Володарского и А. Карповского[/spoiler]
Не забывайте говорить Спасибо. Не уходите с раздачи!   
Торрент: Зарегистрирован [16 сен 2018, 19:54] Для скачивания .torrent
необходима регистрация
Или скачать с помощью
MediaGet
Статус:
Проверен
 
.torrent скачан: 0 раз
Размер: 49.97 ГБ (53 652 804 568 байт)
   Стать Автором раздачи
   
Цитата
  • Похожие торренты
    Ответы
    Просмотры
    Последнее сообщение

Вернуться в Зарубежное кино (HD Video)

Кто сейчас на конференции

Сейчас эту тему просматривают: нет зарегистрированных пользователей и гости: 1