21 грамм / 21 Grams (2003) BDRip [H.265/1080p] [10-bit]

 Статистика раздачи 
Размер: 11.15 ГБ   |  Зарегистрирован: 16 сен 2018, 19:53   |   .torrent скачан: 0 раз
Сидеров: 0  [ 0 байт/сек ]     Личеров: 0  [ 0 байт/сек ]  
  
Аватара пользователя
 
Раздал: 0 байт
Скачал: 0 байт
Ратио: Inf.
Сообщения: 184678
Стаж: 7 лет 9 месяцев 4 дня
Откуда: Rossiya
СообщениеДобавлено: 16 сен 2018, 19:53


21 грамм / 21 Grams (2003) BDRip

Производство: США / Mediana Productions Filmgesellschaft, This Is That Productions, Y Productions
Жанр: Триллер, Драма, Криминал

Режиссер: Алехандро Гонсалес Иньярриту
Актеры: Шон Пенн, Наоми Уоттс, Дэнни Хьюстон, Карли Наон, Клер Пакис, Бенисио Дель Торо, Ник Николс, Шарлотта Генсбур, Джон Рубинстайн, Эдди Марсан

Описание:
Описание фильма: Говорят, что каждый человек в момент смерти теряет 21 грамм. Столько весит горстка монет в пять центов, плитка шоколада, птица колибри…
«21 грамм» — это история о надежде и человечности, жизнелюбии и выживании. Независимо от того, боитесь вы смерти или нет, она приходит, и в этот момент ваше тело становится на 21 грамм легче. Быть может, это вес человеческой души?

http://www.imdb.com/title/tt0315733/?ref_=plg_rt_1
Возраст: 16+ (зрителям, достигшим 16 лет)
Рейтинг MPAA: R (лицам до 17 лет обязательно присутствие взрослого)

Релиз от: Goor80

Продолжительность: 02:04:37
Качество видео: BDRip
Перевод: Дублированный (Парадиз-ВС)
Субтитры: русские, английские

Видео: HEVC/H.265, 1920x1040, ~9798 Kbps
Аудио 1: DTS, 6 ch, 1509 Kbps (русский)
Аудио 2: DTS, 6 ch, 1509 Kbps (английский)
Код: Выделить всёОбщее
Уникальный идентификатор                 : 194732769815633402824668719004783475768 (0x92802AD12AD3605083D5383AA0CBFC38)
Полное имя                               : E:Video21 грамм (21 Grams).mkv
Формат                                   : Matroska
Версия формата                           : Version 4 / Version 2
Размер файла                             : 11,2 Гбайт
Продолжительность                        : 2 ч. 4 м.
Общий поток                              : 12,8 Мбит/сек
Название фильма                          : 21 грамм / 21 Grams
Дата кодирования                         : UTC 2017-10-02 02:07:09
Программа кодирования                    : mkvmerge v15.0.0 ('Duel with the Devil') 64-bit
Библиотека кодирования                   : libebml v1.3.5 + libmatroska v1.4.5
Авторское право                          : Encoded by Gor80
Released by                              : Buba5473 for NNM-Club

Видео
Идентификатор                            : 1
Формат                                   : HEVC
Формат/Информация                        : High Efficiency Video Coding
Профиль формата                          : Main 10@L4@High
Идентификатор кодека                     : V_MPEGH/ISO/HEVC
Продолжительность                        : 2 ч. 4 м.
Битрейт                                  : 9798 Кбит/сек
Ширина                                   : 1920 пикселей
Высота                                   : 1040 пикселей
Соотношение сторон                       : 1,85:1
Режим частоты кадров                     : Постоянный
Частота кадров                           : 23,976 (24000/1001) кадра/сек
Цветовое пространство                    : YUV
Субдискретизация насыщенности            : 4:2:0
Битовая глубина                          : 10 бит
Бит/(Пиксели*Кадры)                      : 0.205
Размер потока                            : 8,52 Гбайт (76%)
Default                                  : Да
Forced                                   : Нет

Аудио #1
Идентификатор                            : 2
Формат                                   : DTS
Формат/Информация                        : Digital Theater Systems
Режим                                    : 16
Параметр Endianness формата              : Big
Идентификатор кодека                     : A_DTS
Продолжительность                        : 2 ч. 4 м.
Вид битрейта                             : Постоянный
Битрейт                                  : 1509 Кбит/сек
Каналы                                   : 6 каналов
Расположение каналов                     : Front: L C R, Side: L R, LFE
Частота                                  : 48,0 КГц
Частота кадров                           : 93,750 кадра/сек (512 spf)
Битовая глубина                          : 24 бит
Метод сжатия                             : С потерями
Размер потока                            : 1,31 Гбайт (12%)
Заголовок                                : Перевод: профессиональный (полное дублирование) с Blu-Ray 'ПАРАДИЗ-ВC'
Язык                                     : Russian
Default                                  : Да
Forced                                   : Нет

Аудио #2
Идентификатор                            : 3
Формат                                   : DTS
Формат/Информация                        : Digital Theater Systems
Режим                                    : 16
Параметр Endianness формата              : Big
Идентификатор кодека                     : A_DTS
Продолжительность                        : 2 ч. 4 м.
Вид битрейта                             : Постоянный
Битрейт                                  : 1509 Кбит/сек
Каналы                                   : 6 каналов
Расположение каналов                     : Front: L C R, Side: L R, LFE
Частота                                  : 48,0 КГц
Частота кадров                           : 93,750 кадра/сек (512 spf)
Битовая глубина                          : 16 бит
Метод сжатия                             : С потерями
Размер потока                            : 1,31 Гбайт (12%)
Язык                                     : English
Default                                  : Нет
Forced                                   : Нет

Текст #1
Идентификатор                            : 4
Формат                                   : UTF-8
Идентификатор кодека                     : S_TEXT/UTF8
Идентификатор кодека/Информация          : UTF-8 Plain Text
Продолжительность                        : 1 ч. 58 м.
Битрейт                                  : 70 бит/сек
ElementCount                             : 1026
Размер потока                            : 61,1 Кбайт (0%)
Язык                                     : Russian
Default                                  : Да
Forced                                   : Нет

Текст #2
Идентификатор                            : 5
Формат                                   : UTF-8
Идентификатор кодека                     : S_TEXT/UTF8
Идентификатор кодека/Информация          : UTF-8 Plain Text
Продолжительность                        : 2 ч. 3 м.
Битрейт                                  : 47 бит/сек
ElementCount                             : 1227
Размер потока                            : 43,0 Кбайт (0%)
Язык                                     : English
Default                                  : Нет
Forced                                   : Нет

Меню
00:00:00.000                             : en:1. Mom Is Waiting for Us
00:04:03.535                             : en:2. So This Is Death's Waiting Room?
00:07:17.103                             : en:3. Jesus Is Our Hope
00:11:20.972                             : en:4. Call an Ambulance
00:14:30.745                             : en:5. Washing the Past
00:18:32.111                             : en:6. There's No Hitting in This House
00:22:11.455                             : en:7. Nobody Saw Him
00:26:51.944                             : en:8. Have You Been Drinking?
00:31:30.806                             : en:9. Heart-to-Heart
00:38:35.188                             : en:10. Duty Bound
00:43:18.930                             : en:11. The First Day of My New Life
00:45:32.521                             : en:12. Life Does Not Go On
00:49:52.990                             : en:13. Original Owner
00:52:48.415                             : en:14. Bled Dry
00:54:51.455                             : en:15. God Even Knows When a Single Hair Moves...
00:57:00.751                             : en:16. Going to Heaven
00:59:47.417                             : en:17. Your Friend
01:03:26.511                             : en:18. Did You Bring What I Asked You For?
01:06:06.838                             : en:19. Making Plans
01:10:44.907                             : en:20. Coming Home
01:14:53.614                             : en:21. Hidden Numbers
01:16:33.047                             : en:22. You Shouldn't Have Done It
01:20:47.259                             : en:23. Can I See You Again?
01:24:28.063                             : en:24. A Good Heart
01:36:01.923                             : en:25. Lack of Evidence
01:39:50.109                             : en:26. Daddy, a Pigeon!
01:43:22.822                             : en:27. Despair
01:45:18.145                             : en:28. Red Shoelaces
01:49:31.690                             : en:29. You're Pregnant
01:50:28.121                             : en:30. How Many Times?
01:55:34.302                             : en:31. 21 Grams
01:58:18.133                             : en:32. End Titles

XMP
Xmp.video.FileName           : E:Video21 грамм (21 Grams).mkv
Xmp.video.FileSize           : -9.53674e-007
Xmp.video.MimeType           : video/matroska
Xmp.video.EBMLVersion        : 1
Xmp.video.EBMLReadVersion    : 1
Xmp.video.DocType            : matroska
Xmp.video.DocTypeVersion     : 4
Xmp.video.DocTypeReadVersion : 2
Xmp.video.TimecodeScale      : 0.001
Xmp.video.MuxingApp          : libebml v1.3.5 + libmatroska v1.4.5
Xmp.video.WritingApp         : mkvmerge v15.0.0 ('Duel with the Devil') 64-bit
Xmp.video.Duration           : 7476566
Xmp.video.DateUTC            : 528602829
Xmp.video.Title              : 21 грамм / 21 Grams
Xmp.video.TotalStream        : 15
Xmp.video.TrackLacing        : No
Xmp.video.Codec              : V_MPEGH/ISO/HEVC
Xmp.video.FrameRate          : 23.976
Xmp.video.TrackLang          : und
Xmp.video.Width              : 1920
Xmp.video.Height             : 1040
Xmp.audio.Compressor         : A_DTS
Xmp.audio.DefaultDuration    : 10666
Xmp.audio.TrackLang          : rus
Xmp.video.TrackName          : Перевод: профессиональный (полное дублирование) СЃ Blu-Ray 'РџРђР РђР”Р?Р—-Р’C'
Xmp.audio.SampleRate         : 48000
Xmp.audio.BitsPerSample      : 16
Xmp.audio.DefaultOn          : No
Xmp.video.SubTTrackLacing    : No
Xmp.video.SubTCodec          : S_TEXT/UTF8
Xmp.video.SubTLang           : rus
Xmp.video.SubTDefaultOn      : No
Xmp.video.AspectRatio        : 1.8
H.265/HEVC (High Efficiency Video Coding) - это новый стандарт кодирования видео.
*Рипы в фомате HEVC, в настоящее время не поддерживается большинством аппаратных проигрывателей.
*Для корректного воспроизведения может потребоваться обновление ПО.
*Стандарт H.265/HEVC является логическим продолжением стандарта H.264/AVC (Advanced Video Coding), и характеризуется более эффективными алгоритмами сжатия, а также поддержкой высокого разрешения вплоть до 8K UHD (8192x4320). Первая версия стандарта H.265 была опубликована в начале 2013 года.

Любителям решения из коробки - установить последнюю версию на выбор:
Media Player Classic - Black Edition (MPC-BE)
VLC media player
Daum Pot Player
GOM Media Player

Любителям WMP и других плееров, использующих по умолчанию для воспроизведения системные кодеки+сплитеры - установить K-Lite Codec Pack версии 10.1.0 и выше.
Любимые плееры, не использующии по умолчанию для воспроизведения системные кодеки+сплитеры, нужно перенастроить на использование оных.

Скриншоты:




Время раздачи: с 11:00 до 21:00 по Новосибирску (UTC +7) (до появления первых 3-5 скачавших)
Не забывайте говорить Спасибо. Не уходите с раздачи!   
Торрент: Зарегистрирован [16 сен 2018, 19:53] Для скачивания .torrent
необходима регистрация
Или скачать с помощью
MediaGet
Статус:
Проверен
 
.torrent скачан: 0 раз
Хэш: 15982afa2d5406523d5aa4cf78331bc38f2b605c
Размер: 11.15 ГБ (11 972 595 487 байт)
   Стать Автором раздачи
   
Цитата
  • Похожие торренты
    Ответы
    Просмотры
    Последнее сообщение

Вернуться в Зарубежное кино (HD Video)

Кто сейчас на конференции

Сейчас эту тему просматривают: нет зарегистрированных пользователей и гости: 1