Где-то там / Elsewhere (2009) BDRip [H.264/1080p]

 Статистика раздачи 
Размер: 14.03 ГБ   |  Зарегистрирован: 16 сен 2018, 19:25   |   .torrent скачан: 0 раз
Сидеров: 0  [ 0 байт/сек ]     Личеров: 0  [ 0 байт/сек ]  
  
Аватара пользователя
 
Раздал: 0 байт
Скачал: 0 байт
Ратио: Inf.
Сообщения: 174825
Стаж: 7 лет 7 месяцев 7 дней
Откуда: Rossiya
СообщениеДобавлено: 16 сен 2018, 19:25


Где-то там / Elsewhere (2009) BDRip [H.264/1080p]

Производство: США / Lost Toys
Жанр: Драма, Криминал, Триллер

Режиссер: Нэйтан Хоуп
Продюсер: Илэйн Эрлих, Винс Паломино, Тереза Зэйлс
Актеры: Анна Кендрик, Чак Картер, Таня Рэймонд, Джон Грайз, Оливия Доун Йорк, Пол Уэсли, Джеффри Дэниэл Филлипс, Шеннон Холт, Кинна МакИнро, Дэн Флэннери

Описание:
Сара и Джилиан были лучшими друзьями на протяжении столь длительного времени, что даже не могут вспомнить, когда их дружба началась. Жизнь двух девочек в небольшом городке в Индиане очень разная: Сара является талантливой ученицей и спортсменкой, в то время как Джилиан является звездой смутьян. Несмотря на то, что девочки так долго не могут вырваться из небольшого города, Сара потрясена, обнаружив, что Джилиан использует Интернет для удовлетворения мужчин, с единственной целью — найти тех, кто покажет ей что-то захватывающее. Вскоре после этого, она исчезает, оставляя Саре лишь журнал и зашифрованное видеосообщение со своего мобильного телефона. Сара привлекает на помощь Джаспера, резидента компьютерных гениев, который тайно обожает ее. Сара погружается с головой на поисках Джилиан. Тропа ведет этих двоих в темные секреты города, где они обнаружат, почему никто не хочет, чтобы Джилиан нашлась.

http://www.imdb.com/title/tt0874271/?ref_=plg_rt_1
Возраст: этот продукт не был классифицирован
Рейтинг MPAA: R (лицам до 17 лет обязательно присутствие взрослого)

Релиз от: RG NNM Club Video

Продолжительность: 01:46:18
Качество видео: BDRip
Перевод: Двуголосый (Virus)
Субтитры: Испанские

Видео: AVC/H.264, 1916x1080, ~18 mbps, 23,976 fps
Аудио #01: AC3, 6 ch, 448 kbps (Русский)
Аудио #02: AC3, 6 ch, 448 kbps (Английский)
Код: Выделить всё-[Information] [16.08.2017 18:32:22] x264 [info]: frame I:866   Avg QP:17.28  size:234173
-[Information] [16.08.2017 18:32:23] x264 [info]: frame P:30666 Avg QP:18.41  size:131371
-[Information] [16.08.2017 18:32:23] x264 [info]: frame B:121367 Avg QP:21.79  size: 83325
Код: Выделить всёОбщее
Уникальный идентификатор                 : 171800750345116335749640110949385823200 (0x813F9EF6F5571C7F8A45840C89EEE3E0)
Полное имя                               : F:Мои раздачиElsewhere.2009.1080p.nnm_video.mkv
Формат                                   : Matroska
Версия формата                           : Version 2
Размер файла                             : 14,0 Гбайт
Продолжительность                        : 1 ч. 46 м.
Общий поток                              : 18,9 Мбит/сек
Название фильма                          : Где-то там (Elsewhere) RG NNM Club Video
Дата кодирования                         : UTC 2017-08-19 05:03:32
Программа кодирования                    : mkvmerge v14.0.0 ('Flow') 64bit
Библиотека кодирования                   : libebml v1.3.4 + libmatroska v1.4.5
Attachments                              : Лог кодирования.log

Видео
Идентификатор                            : 1
Формат                                   : AVC
Формат/Информация                        : Advanced Video Codec
Профиль формата                          :
Параметр CABAC формата                   : Да
Параметр RefFrames формата               : 4 кадра
Идентификатор кодека                     : V_MPEG4/ISO/AVC
Продолжительность                        : 1 ч. 46 м.
Битрейт                                  : 18,0 Мбит/сек
Ширина                                   : 1916 пикселей
Высота                                   : 1080 пикселей
Соотношение сторон                       : 16:9
Режим частоты кадров                     : Постоянный
Частота кадров                           : 23,976 (24000/1001) кадра/сек
Цветовое пространство                    : YUV
Субдискретизация насыщенности            : 4:2:0
Битовая глубина                          : 8 бит
Тип развёртки                            : Прогрессивная
Бит/(Пиксели*Кадры)                      : 0.363
Размер потока                            : 13,1 Гбайт (93%)
Заголовок                                : Где-то там (Elsewhere)
Библиотека кодирования                   : x264 core 152 r2851 ba24899
Настройки программы                      : cabac=1 / ref=4 / deblock=1:-1:-1 / analyse=0x3:0x133 / me=umh / subme=11 / psy=1 / psy_rd=1.00:0.15 / mixed_ref=1 / me_range=64 / chroma_me=1 / trellis=2 / 8x8dct=1 / cqm=0 / deadzone=21,11 / fast_pskip=0 / chroma_qp_offset=-3 / threads=6 / lookahead_threads=1 / sliced_threads=0 / nr=0 / decimate=0 / interlaced=0 / bluray_compat=0 / constrained_intra=0 / bframes=16 / b_pyramid=2 / b_adapt=2 / b_bias=0 / direct=3 / weightb=1 / open_gop=0 / weightp=2 / keyint=240 / keyint_min=23 / scenecut=40 / intra_refresh=0 / rc_lookahead=60 / rc=2pass / mbtree=0 / bitrate=18000 / ratetol=1.0 / qcomp=0.60 / qpmin=0 / qpmax=69 / qpstep=4 / cplxblur=20.0 / qblur=0.5 / vbv_maxrate=50000 / vbv_bufsize=62500 / nal_hrd=none / filler=0 / ip_ratio=1.40 / pb_ratio=1.30 / aq=1:1.00
Язык                                     : English
Default                                  : Да
Forced                                   : Нет

Аудио #1
Идентификатор                            : 2
Формат                                   : AC-3
Формат/Информация                        : Audio Coding 3
Параметр Endianness формата              : Big
Идентификатор кодека                     : A_AC3
Продолжительность                        : 1 ч. 46 м.
Вид битрейта                             : Постоянный
Битрейт                                  : 448 Кбит/сек
Каналы                                   : 6 каналов
Расположение каналов                     : Front: L C R, Side: L R, LFE
Частота                                  : 48,0 КГц
Частота кадров                           : 31,250 кадров/сек (1536 SPF)
Битовая глубина                          : 16 бит
Метод сжатия                             : С потерями
Размер потока                            : 341 Мбайт (2%)
Заголовок                                : Двухголосый ''VIRUS'' (AC-3, Постоянный, 448 Кбит/сек, 6 каналов, 48,0 КГц, 16 бит)
Язык                                     : Russian
ServiceKind/String                       : Complete Main
Default                                  : Да
Forced                                   : Нет

Аудио #2
Идентификатор                            : 3
Формат                                   : AC-3
Формат/Информация                        : Audio Coding 3
Параметр Endianness формата              : Big
Идентификатор кодека                     : A_AC3
Продолжительность                        : 1 ч. 46 м.
Вид битрейта                             : Постоянный
Битрейт                                  : 448 Кбит/сек
Каналы                                   : 6 каналов
Расположение каналов                     : Front: L C R, Side: L R, LFE
Частота                                  : 48,0 КГц
Частота кадров                           : 31,250 кадров/сек (1536 SPF)
Битовая глубина                          : 16 бит
Метод сжатия                             : С потерями
Размер потока                            : 341 Мбайт (2%)
Заголовок                                : Оригинал (AC-3, Постоянный, 448 Кбит/сек, 6 каналов, 48,0 КГц, 16 бит)
Язык                                     : English
ServiceKind/String                       : Complete Main
Default                                  : Нет
Forced                                   : Нет

Текст
Идентификатор                            : 4
Формат                                   : UTF-8
Идентификатор кодека                     : S_TEXT/UTF8
Идентификатор кодека/Информация          : UTF-8 Plain Text
Заголовок                                : Испанские
Язык                                     : Spanish
Default                                  : Нет
Forced                                   : Нет

Меню
00:00:00.000                             : en:Chapter 01
00:12:25.161                             : en:Chapter 02
00:23:16.603                             : en:Chapter 03
00:37:43.094                             : en:Chapter 04
00:47:18.210                             : en:Chapter 05
01:00:29.542                             : en:Chapter 06
01:10:27.681                             : en:Chapter 07
01:17:43.116                             : en:Chapter 08
01:29:46.756                             : en:Chapter 09
01:38:30.195                             : en:Chapter 10

Скриншоты:




Время раздачи: 24/7 до первых 10 скачавших, потом ухожу с раздачи
Не забывайте говорить Спасибо. Не уходите с раздачи!   
Торрент: Зарегистрирован [16 сен 2018, 19:25] Для скачивания .torrent
необходима регистрация
Или скачать с помощью
MediaGet
Статус:
Проверен
 
.torrent скачан: 0 раз
Размер: 14.03 ГБ (15 060 429 807 байт)
   Стать Автором раздачи
   
Цитата

Вернуться в Зарубежное кино (HD Video)

Кто сейчас на конференции

Сейчас эту тему просматривают: нет зарегистрированных пользователей и гости: 1