Мужчина по вызову 2 / Deuce Bigalow European Gigolo (Майк Бигелоу / Mike Bigelow) [2005, США, Комедия, WEBRip 1080p] Dub + Eng + Sub Eng

 Статистика раздачи 
Размер: 7.67 ГБ   |  Зарегистрирован: 16 сен 2018, 19:23   |   .torrent скачан: 0 раз
Сидеров: 16  [ 0 байт/сек ]     Личеров: 12  [ 0 байт/сек ]  
  
Аватара пользователя
 
Раздал: 0 байт
Скачал: 0 байт
Ратио: Inf.
Сообщения: 176511
Стаж: 7 лет 7 месяцев 8 дней
Откуда: Rossiya

Мужчина по вызову 2 / Deuce Bigalow European Gigolo
Страна: США
Жанр: Комедия
Год выпуска: 2005
Продолжительность: 01:23:04
Перевод: Профессиональный (дублированный)
Субтитры: английские
Оригинальная аудиодорожка: английский
Режиссер: Майк Бигелоу / Mike Bigelow
В ролях: Роб Шнайдер, Эдди Гриффин, Джонни де Мол, Фредерико Дордей, Дана Мин Гудман, Чарлз Китинг, Йерун Краббе, Норм МакДоналд, Крис МакКэй, Миранда Рэйсон, Тиль Швайгер, Ваутэр Смит, Рэйчел Стивенс, Ханна Вербум
Описание: Дьюс отправляется по приглашению своего бывшего сутенера на отдых в Амстердам и в итоге понимает, что его вновь хотят вернуть в бизнес эскорт услуг для женщин. Не то, чтобы Дьюс был против — платят неплохо, но, во-первых, у него уже есть постоянная подружка, а во-вторых, у европейских женщин слишком бурная сексуальная фантазия…
Доп.информация: Периодически на видео появляется логотип сайта.
Сэмпл: http://multi-up.com/1164711
Тип релиза: WEBRip 1080p
Контейнер: MKV
Видео: AVC, 1920x1080 (16:9), 23.976 fps, 11.9 Mbps (0.239 bit/pixel)
Аудио: AC-3, 48.0 KHz, 6 ch, 448 Kbps, CBR (Russian)
Аудио 2: E-AC-3, 48.0 KHz, 6 ch, 640 Kbps, CBR (English)
Субтитры: softsub (srt)
бщее
Уникальный идентификатор : 243357396016198166384446443228422177969 (0xB714EDFB6AC4893B8A514C9FB23B84B1)
Полное имя : K:Deuce Bigalow - European Gigolo. WEBRip 1080p.mkv
Формат : Matroska
Версия формата : Version 2
Размер файла : 7,67 Гбайт
Продолжительность : 1 ч. 23 м.
Режим общего битрейта : Переменный
Общий поток : 13,2 Мбит/сек
Название фильма : Мужчина по вызову 2 / Deuce Bigalow European Gigolo (2005)
Дата кодирования : UTC 2017-08-13 06:52:39
Программа кодирования : mkvmerge v8.2.0 ('World of Adventure') 64bit
Библиотека кодирования : libebml v1.3.1 + libmatroska v1.4.2
Видео
Идентификатор : 1
Формат : AVC
Формат/Информация : Advanced Video Codec
Профиль формата : High@L4
Параметр CABAC формата : Да
Параметр ReFrames формата : 4 кадра
Идентификатор кодека : V_MPEG4/ISO/AVC
Продолжительность : 1 ч. 23 м.
Вид битрейта : Переменный
Битрейт : 11,9 Мбит/сек
Максимальный битрейт : 15,0 Мбит/сек
Ширина : 1920 пикселей
Высота : 1080 пикселей
Соотношение сторон : 16:9
Режим частоты кадров : Постоянный
Частота кадров : 23,976 (24000/1001) кадра/сек
Цветовое пространство : YUV
Субдискретизация насыщенности : 4:2:0
Битовая глубина : 8 бит
Тип развёртки : Прогрессивная
Бит/(Пиксели*Кадры) : 0.239
Размер потока : 6,89 Гбайт (90%)
Язык : English
Default : Нет
Forced : Нет
Цветовой диапазон : Limited
Основные цвета : BT.709
Характеристики трансфера : BT.709
Коэффициенты матрицы : BT.709
Аудио #1
Идентификатор : 2
Формат : AC-3
Формат/Информация : Audio Coding 3
Расширение режима : CM (complete main)
Параметр Endianness формата : Big
Идентификатор кодека : A_AC3
Продолжительность : 1 ч. 23 м.
Вид битрейта : Постоянный
Битрейт : 448 Кбит/сек
Каналы : 6 каналов
Расположение каналов : Front: L C R, Side: L R, LFE
Частота : 48,0 КГц
Частота кадров : 31,250 кадров/сек (1536 spf)
Метод сжатия : С потерями
Размер потока : 266 Мбайт (3%)
Заголовок : Профессиональный (полное дублирование)
Язык : Russian
Default : Да
Forced : Нет
Аудио #2
Идентификатор : 3
Формат : E-AC-3
Формат/Информация : Audio Coding 3
Параметр Endianness формата : Big
Идентификатор кодека : A_EAC3
Продолжительность : 1 ч. 23 м.
Вид битрейта : Постоянный
Битрейт : 640 Кбит/сек
Каналы : 6 каналов
Расположение каналов : Front: L C R, Side: L R, LFE
Частота : 48,0 КГц
Частота кадров : 187,500 кадров/сек (256 spf)
Метод сжатия : С потерями
Размер потока : 380 Мбайт (5%)
Язык : English
Default : Нет
Forced : Нет
Текст
Идентификатор : 4
Формат : UTF-8
Идентификатор кодека : S_TEXT/UTF8
Идентификатор кодека/Информация : UTF-8 Plain Text
Язык : English
Default : Нет
Forced : Нет

Торрент перезалит 13.08.17 - HDTV заменен на WEBRip
Не забывайте говорить Спасибо. Не уходите с раздачи!   
Торрент: Зарегистрирован [16 сен 2018, 19:23] Для скачивания .torrent
необходима регистрация
Или скачать с помощью
MediaGet
Статус:
Проверен
 
.torrent скачан: 0 раз
Размер: 7.67 ГБ (8 239 371 818 байт)
   Стать Автором раздачи
   
Цитата
  • Похожие торренты
    Ответы
    Просмотры
    Последнее сообщение

Вернуться в Зарубежное кино (HD Video)

Кто сейчас на конференции

Сейчас эту тему просматривают: нет зарегистрированных пользователей и гости: 1