Годзилла / Godzilla (Роланд Эммерих / Roland Emmerich) [1998, США, Япония, фантастика, боевик, триллер, BDRip 720p] [Mastered in 4K] Dub + 2x MVO + DVO + 3x AVO + Ukr + Sub (Rus, Eng) + Original Eng

 Статистика раздачи 
Размер: 14.75 ГБ   |  Зарегистрирован: 16 сен 2018, 19:16   |   .torrent скачан: 0 раз
Сидеров: 1  [ 0 байт/сек ]     Личеров: 4  [ 0 байт/сек ]  
  
Аватара пользователя
 
Раздал: 0 байт
Скачал: 0 байт
Ратио: Inf.
Сообщения: 174825
Стаж: 7 лет 7 месяцев 7 дней
Откуда: Rossiya

Годзилла / Godzilla
Страна: США, Япония
Студия: Centropolis Film Productions, Fried Films, Independent Pictures (II), Toho Film (Eiga) Co. Ltd., TriStar Pictures,
Жанр: фантастика, боевик, триллер
Год выпуска: 1998
Продолжительность: 02:18:43
Слоган: «Размер имеет значение!»
Перевод 1: Профессиональный (полное дублирование) BD CEE
Перевод 2: Профессиональный (многоголосый, закадровый) Телеканал ОРТ
Перевод 3: Профессиональный (многоголосый, закадровый) ВидеоСервис
Перевод 4: Авторский (двухголосый, закадровый) VHS
Перевод 5: Авторский (одноголосый, закадровый) А.Гаврилов
Перевод 6: Авторский (одноголосый, закадровый) Ю.Живов
Перевод 7: Авторский (одноголосый, закадровый) Н.Антонов
Перевод 8: Профессиональный (многоголосый, закадровый) К1, "ТакТребаПродакшн"
Субтитры: русские (форсированные, полные), английские (полные, SDH)
Оригинальная аудиодорожка: английский
Режиссер: Роланд Эммерих / Roland Emmerich
Сценарий: Дин Девлин, Роланд Эммерих, Тед Эллиот, ...
В ролях: Мэттью Бродерик, Жан Рено, Мария Питилло, Хэнк Азария, Кевин Данн, Майкл Лернер, Гарри Ширер, Арабелла Филд, Викки Льюис, Даг Сэвант и другие.
Описание: Из тихоокеанских джунглей на Нью — Йорк надвинулась страшная катастрофа. На глазах у потрясенных жителей рушатся небоскребы, переворачиваются автобусы, уходят под землю целые кварталы. Но это не ураган и не землетрясение. Это — Годзилла, самое ужасное чудовище в истории.
Для него человеческая цивилизация — лишь жалкий муравейник, дома — спичечные коробки, вертолеты — назойливые стрекозы. Мегаполису грозит полное уничтожение. Армия, оснащенная по последнему слову техники, не в силах противостоять гигантской ящерице. Небольшой группе смельчаков предстоит выяснить, зачем Годзилла пришел в Нью — Йорк. Возможно, тогда им удастся спасти город…
- зрителям, достигшим 12 лет

Доп. информация: За исходник взят Blu-ray Disk 1080p 4K Remastered.
Сохранены оригинальные главы с Blu-ray Disk.
Дорожки DTS-HD MA 5.1 пожаты до AC3@640kbps. (Оригинал, Гаврилов, Живов)
Многоголосая, закадровая дорожка от ВидеоСервис'а оцифрована в DTS-HD MA 2.0 с VHS пользователем и пожата до AC3@640kbps.
SCREENSHOTCOMPARISON

Посмотреть трейлер
Скачать сэмпл

Тип релиза: BDRip 720p | FRANKiE13
Контейнер: MKV
Видео: x.264 | 10 921 kbps @ 16crf | 1280x536 | 23.976 fps | 2.40:1 | High@L4.1
Аудио 01: RUS | AC3 | 5.1 | 48 kHz | 640 kbps | BD CEE
Аудио 02: RUS | AC3 | 2.0 | 48 kHz | 640 kbps | ВидеоСервис
Аудио 03: RUS | AC3 | 2.0 | 48 kHz | 192 kbps | ОРТ
Аудио 04: RUS | AC3 | 2.0 | 48 kHz | 192 kbps | VHS
Аудио 05: RUS | AC3 | 5.1 | 48 kHz | 640 kbps | А.Гаврилов
Аудио 06: RUS | AC3 | 5.1 | 48 kHz | 640 kbps | Ю.Живов
Аудио 07: RUS | AC3 | 2.0 | 48 kHz | 192 kbps | Н.Антонов
Аудио 08: UKR | AC3 | 5.1 | 48 kHz | 448 kbps | K1
Аудио 09: ENG | AC3 | 5.1 | 48 kHz | 640 kbps | Оригинал
Аудио 10: ENG | OGG | 2.0 | 48 kHz | 80 kbps | Комментарии
Формат субтитров: SoftSub (.srt)
Код:
Код: Выделить всёGeneral
Format                                   : Matroska
Format version                           : Version 4 / Version 2
File size                                : 14.8 GiB
Duration                                 : 2 h 18 min
Overall bit rate mode                    : Variable
Overall bit rate                         : 15.2 Mb/s
Movie name                               : Godzilla 1998 [Remastered in 4K] | FRANKiE13
Encoded date                             : UTC 2017-07-16 14:20:30
Writing application                      : mkvmerge v9.9.0 ('Pick Up') 64bit
Writing library                          : libebml v1.3.4 + libmatroska v1.4.5
Cover                                    : Yes
Attachments                              : cover
Video
ID                                       : 1
Format                                   : AVC
Format/Info                              : Advanced Video Codec
Format profile                           : High@L4.1
Format settings, CABAC                   : Yes
Format settings, ReFrames                : 12 frames
Codec ID                                 : V_MPEG4/ISO/AVC
Duration                                 : 2 h 18 min
Bit rate                                 : 10.9 Mb/s
Width                                    : 1 280 pixels
Height                                   : 536 pixels
Display aspect ratio                     : 2.40:1
Frame rate mode                          : Constant
Frame rate                               : 23.976 (24000/1001) FPS
Color space                              : YUV
Chroma subsampling                       : 4:2:0
Bit depth                                : 8 bits
Scan type                                : Progressive
Bits/(Pixel*Frame)                       : 0.664
Stream size                              : 10.6 GiB (72%)
Title                                    : Godzilla (1998) - Encoded by FRANKiE13
Writing library                          : x264 core 148 r2744 b97ae06
Encoding settings                        : cabac=1 / ref=12 / deblock=1:-3:-3 / analyse=0x3:0x133 / me=umh / subme=11 / psy=1 / psy_rd=1.00:0.00 / mixed_ref=1 / me_range=48 / chroma_me=1 / trellis=2 / 8x8dct=1 / cqm=0 / deadzone=21,11 / fast_pskip=1 / chroma_qp_offset=-2 / threads=16 / lookahead_threads=1 / sliced_threads=0 / nr=0 / decimate=1 / interlaced=0 / bluray_compat=0 / constrained_intra=0 / bframes=11 / b_pyramid=2 / b_adapt=1 / b_bias=0 / direct=3 / weightb=1 / open_gop=0 / weightp=2 / keyint=240 / keyint_min=23 / scenecut=40 / intra_refresh=0 / rc_lookahead=60 / rc=crf / mbtree=0 / crf=16.0 / qcomp=0.60 / qpmin=0 / qpmax=69 / qpstep=4 / vbv_maxrate=50000 / vbv_bufsize=62500 / crf_max=0.0 / nal_hrd=none / filler=0 / ip_ratio=1.40 / pb_ratio=1.30 / aq=1:0.90
Language                                 : English
Default                                  : Yes
Forced                                   : No
Audio #1
ID                                       : 2
Format                                   : AC-3
Format/Info                              : Audio Coding 3
Format settings, Endianness              : Big
Codec ID                                 : A_AC3
Duration                                 : 2 h 18 min
Bit rate mode                            : Constant
Bit rate                                 : 640 kb/s
Channel(s)                               : 6 channels
Channel positions                        : Front: L C R, Side: L R, LFE
Sampling rate                            : 48.0 kHz
Frame rate                               : 31.250 FPS (1536 spf)
Bit depth                                : 16 bits
Compression mode                         : Lossy
Stream size                              : 635 MiB (4%)
Title                                    : Профессиональный дублированный / BD CEE
Language                                 : Russian
Service kind                             : Complete Main
Default                                  : Yes
Forced                                   : No
Audio #2
ID                                       : 3
Format                                   : AC-3
Format/Info                              : Audio Coding 3
Format settings, Endianness              : Big
Codec ID                                 : A_AC3
Duration                                 : 2 h 18 min
Bit rate mode                            : Constant
Bit rate                                 : 640 kb/s
Channel(s)                               : 2 channels
Channel positions                        : Front: L R
Sampling rate                            : 48.0 kHz
Frame rate                               : 31.250 FPS (1536 spf)
Bit depth                                : 16 bits
Compression mode                         : Lossy
Stream size                              : 635 MiB (4%)
Title                                    : Многоголосый закадровый / ВидеоСервис
Language                                 : Russian
Service kind                             : Complete Main
Default                                  : No
Forced                                   : No
Audio #3
ID                                       : 4
Format                                   : AC-3
Format/Info                              : Audio Coding 3
Format settings, Endianness              : Big
Codec ID                                 : A_AC3
Duration                                 : 2 h 18 min
Bit rate mode                            : Constant
Bit rate                                 : 192 kb/s
Channel(s)                               : 2 channels
Channel positions                        : Front: L R
Sampling rate                            : 48.0 kHz
Frame rate                               : 31.250 FPS (1536 spf)
Bit depth                                : 16 bits
Compression mode                         : Lossy
Stream size                              : 191 MiB (1%)
Title                                    : Многоголосый закадровый / ТК ОРТ
Language                                 : Russian
Service kind                             : Complete Main
Default                                  : No
Forced                                   : No
Audio #4
ID                                       : 5
Format                                   : AC-3
Format/Info                              : Audio Coding 3
Format settings, Endianness              : Big
Codec ID                                 : A_AC3
Duration                                 : 2 h 18 min
Bit rate mode                            : Constant
Bit rate                                 : 192 kb/s
Channel(s)                               : 2 channels
Channel positions                        : Front: L R
Sampling rate                            : 48.0 kHz
Frame rate                               : 31.250 FPS (1536 spf)
Bit depth                                : 16 bits
Compression mode                         : Lossy
Stream size                              : 191 MiB (1%)
Title                                    : Многоголосый закадровый / VHS
Language                                 : Russian
Service kind                             : Complete Main
Default                                  : No
Forced                                   : No
Audio #5
ID                                       : 6
Format                                   : AC-3
Format/Info                              : Audio Coding 3
Format settings, Endianness              : Big
Codec ID                                 : A_AC3
Duration                                 : 2 h 18 min
Bit rate mode                            : Constant
Bit rate                                 : 640 kb/s
Channel(s)                               : 5 channels
Channel positions                        : Front: L C R, Side: L R
Sampling rate                            : 48.0 kHz
Frame rate                               : 31.250 FPS (1536 spf)
Bit depth                                : 16 bits
Compression mode                         : Lossy
Stream size                              : 635 MiB (4%)
Title                                    : Одноголосый закадровый, А.Гаврилов
Language                                 : Russian
Service kind                             : Complete Main
Default                                  : No
Forced                                   : No
Audio #6
ID                                       : 7
Format                                   : AC-3
Format/Info                              : Audio Coding 3
Format settings, Endianness              : Big
Codec ID                                 : A_AC3
Duration                                 : 2 h 18 min
Bit rate mode                            : Constant
Bit rate                                 : 640 kb/s
Channel(s)                               : 5 channels
Channel positions                        : Front: L C R, Side: L R
Sampling rate                            : 48.0 kHz
Frame rate                               : 31.250 FPS (1536 spf)
Bit depth                                : 16 bits
Compression mode                         : Lossy
Stream size                              : 635 MiB (4%)
Title                                    : Одноголосый закадровый, Ю.Живов
Language                                 : Russian
Service kind                             : Complete Main
Default                                  : No
Forced                                   : No
Audio #7
ID                                       : 8
Format                                   : AC-3
Format/Info                              : Audio Coding 3
Format settings, Endianness              : Big
Codec ID                                 : A_AC3
Duration                                 : 2 h 18 min
Bit rate mode                            : Constant
Bit rate                                 : 192 kb/s
Channel(s)                               : 2 channels
Channel positions                        : Front: L R
Sampling rate                            : 48.0 kHz
Frame rate                               : 31.250 FPS (1536 spf)
Bit depth                                : 16 bits
Compression mode                         : Lossy
Stream size                              : 191 MiB (1%)
Title                                    : Одноголосый закадровый, Н.Антонов
Language                                 : Russian
Service kind                             : Complete Main
Default                                  : No
Forced                                   : No
Audio #8
ID                                       : 9
Format                                   : AC-3
Format/Info                              : Audio Coding 3
Format settings, Endianness              : Big
Codec ID                                 : A_AC3
Duration                                 : 2 h 18 min
Bit rate mode                            : Constant
Bit rate                                 : 448 kb/s
Channel(s)                               : 6 channels
Channel positions                        : Front: L C R, Side: L R, LFE
Sampling rate                            : 48.0 kHz
Frame rate                               : 31.250 FPS (1536 spf)
Bit depth                                : 16 bits
Compression mode                         : Lossy
Stream size                              : 445 MiB (3%)
Title                                    : Многоголосый закадровый / К1, "ТакТребаПродакшн"
Language                                 : Ukrainian
Service kind                             : Complete Main
Default                                  : No
Forced                                   : No
Audio #9
ID                                       : 10
Format                                   : AC-3
Format/Info                              : Audio Coding 3
Format settings, Endianness              : Big
Codec ID                                 : A_AC3
Duration                                 : 2 h 18 min
Bit rate mode                            : Constant
Bit rate                                 : 640 kb/s
Channel(s)                               : 5 channels
Channel positions                        : Front: L C R, Side: L R
Sampling rate                            : 48.0 kHz
Frame rate                               : 31.250 FPS (1536 spf)
Bit depth                                : 16 bits
Compression mode                         : Lossy
Stream size                              : 635 MiB (4%)
Title                                    : Оригинал
Language                                 : English
Service kind                             : Complete Main
Default                                  : No
Forced                                   : No
Audio #10
ID                                       : 11
Format                                   : Vorbis
Format settings, Floor                   : 1
Codec ID                                 : A_VORBIS
Duration                                 : 2 h 18 min
Bit rate mode                            : Variable
Bit rate                                 : 80.0 kb/s
Channel(s)                               : 2 channels
Sampling rate                            : 48.0 kHz
Frame rate                               : 57.941 FPS (828 spf)
Compression mode                         : Lossy
Stream size                              : 70.8 MiB (0%)
Title                                    : Комментарии
Writing library                          : libVorbis 1.2 (UTC 2007-06-22)
Language                                 : English
Default                                  : No
Forced                                   : No
Text #1
ID                                       : 12
Format                                   : UTF-8
Codec ID                                 : S_TEXT/UTF8
Codec ID/Info                            : UTF-8 Plain Text
Duration                                 : 2 h 5 min
Bit rate                                 : 2 b/s
Count of elements                        : 48
Stream size                              : 2.01 KiB (0%)
Title                                    : Forced
Language                                 : Russian
Default                                  : Yes
Forced                                   : No
Text #2
ID                                       : 13
Format                                   : UTF-8
Codec ID                                 : S_TEXT/UTF8
Codec ID/Info                            : UTF-8 Plain Text
Duration                                 : 2 h 17 min
Bit rate                                 : 52 b/s
Count of elements                        : 799
Stream size                              : 53.0 KiB (0%)
Title                                    : Full
Language                                 : Russian
Default                                  : No
Forced                                   : No
Text #3
ID                                       : 14
Format                                   : UTF-8
Codec ID                                 : S_TEXT/UTF8
Codec ID/Info                            : UTF-8 Plain Text
Duration                                 : 2 h 1 min
Bit rate                                 : 47 b/s
Count of elements                        : 1042
Stream size                              : 42.6 KiB (0%)
Title                                    : Full
Language                                 : English
Default                                  : No
Forced                                   : No
Text #4
ID                                       : 15
Format                                   : UTF-8
Codec ID                                 : S_TEXT/UTF8
Codec ID/Info                            : UTF-8 Plain Text
Duration                                 : 2 h 9 min
Bit rate                                 : 44 b/s
Count of elements                        : 1230
Stream size                              : 42.5 KiB (0%)
Title                                    : SDH
Language                                 : English
Default                                  : No
Forced                                   : No
Menu
00:00:00.000                             : en:00:00:00.000
00:07:48.426                             : en:00:07:48.426
00:17:25.461                             : en:00:17:25.461
00:25:28.235                             : en:00:25:28.235
00:36:53.837                             : en:00:36:53.837
00:41:48.214                             : en:00:41:48.214
00:48:19.730                             : en:00:48:19.730
01:01:35.942                             : en:01:01:35.942
01:11:06.095                             : en:01:11:06.095
01:21:38.685                             : en:01:21:38.685
01:30:26.212                             : en:01:30:26.212
01:39:14.157                             : en:01:39:14.157
01:50:24.159                             : en:01:50:24.159
01:52:28.659                             : en:01:52:28.659
02:00:36.771                             : en:02:00:36.771
02:05:56.883                             : en:02:05:56.883

Source vs Encode











Source vs FRANKiE13 vs old rip vs





На возведение декораций было потрачено невероятное количество древесины. Этого количества вполне хватило бы на постройку 50 домов. Также на декорации было израсходовано около 35 тонн стальных конструкций.
Для съемки ливня было использовано 321 тыс. кубометров воды.
6 мая 1997 года в Джерси Сити бушевал торнадо. Съемочная бригада была вынуждена прекратить съемочный процесс и внести изменения в расписание. Однако даже в этой ситуации съемочной группе удалось заснять небольшой фрагмент катастрофы, некоторые кадры попали в итоговую версию картины.
В момент прохождения Годзиллы по улицам города, машины в кадре подпрыгивают. Для этого было задействовано около 20 специальных приспособлений.
Имя персонажа Мэттью Бродерика — доктор Нико Татопулос. Получению этой фамилии он обязан дизайнеру и конструктору Годзиллы — Патрику Татопулосу.
Томоюки Танака спродюсировал все японские картины, посвященные Годзилле. Он умер за месяц до начала съемок. В итоге было решено посвятить фильм этому легендарному японскому кинопродюсеру.
По плану продюсеров спустя некоторое время должны были появиться еще два сиквела к фильму. Но после разгромных критических статей и слабого прокатного выступления эти планы так и остались планами.
Актер Кэнпатиро Сацума, сыгравший роль Годзиллы в период с 1985 по 1995 годы, ушел на середине показа со словами: «Это не Годзилла. Я не вижу здесь души».
Режиссер Роланд Эммерих признался, что ему не понравился ни один фильм из оригинальной японской серии. На участие в проекте он согласился лишь потому, что ему предоставили полную свободу на съемочной площадке.
Первые варианты сценария и представление Годзиллы на экране должны были максимально соответствовать японскому оригиналу. В частности, Годзилла должен был сражаться с монстром по имени Грифон.
Первый тизер появился в кинотеатрах еще за год до официального релиза. Этот ролик представлял собой съемки палеонтологического музея и в финале демонстрировал ногу Годзиллы, разрушающую скелет динозавра. Данную сцену было решено не включать в финальный вариант фильма.
Первые наброски проекта появились еще в 1990 году. На тот момент главным кандидатом на режиссерское кресло считался Джеймс Кэмерон. В дальнейшем этот проект сватали Тиму Бёртону и Джо Джонстону, пока в 1997 году не пришел Роланд Эммерих.
Огненное дыхание Годзиллы не было предусмотрено в оригинальном сценарии. На внесение изменений в сценарий съемочную группу подтолкнуло общение с фанатами френчайза.
Право на съемку «Годзиллы» фирма Sony выкупила у студии Тoho, снявшей первый фильм о Годзилле еще в ноябре 1954.
К фильму про Годзиллу был записан саундтрек, включающий несколько десятков инструментальных композиций и песен, в создании которых принимали участие композитор Дэвид Арнольд, рэпер Пафф Дэдди, группа Jamiroquai и другие. Был выпущен на аудиокассетах и CD спустя некоторое время после выхода фильма в прокат. Также существует ремикс Come With Me (Morello Mix), выпущенный отдельно.
Годзилла из этого фильма позже был переименован в «Зиллу». Под таким именем монстр появляется в фильме «Годзилла: Финальные войны» (2004). В фильме имя не упоминалось, но использовалось при съёмках.
По фильму вышла одноимённая видеоигра.
[*]На 51-ой минуте фильма можно заметить, как в магазине видеопроката по телевизору идёт фильм «Годзилла» (1954).
[/spoiler]
Не забывайте говорить Спасибо. Не уходите с раздачи!   
Торрент: Зарегистрирован [16 сен 2018, 19:16] Для скачивания .torrent
необходима регистрация
Или скачать с помощью
MediaGet
Статус:
Проверен
 
.torrent скачан: 0 раз
Размер: 14.75 ГБ (15 838 353 559 байт)
   Стать Автором раздачи
   
Цитата
  • Похожие торренты
    Ответы
    Просмотры
    Последнее сообщение

Вернуться в Зарубежное кино (HD Video)

Кто сейчас на конференции

Сейчас эту тему просматривают: нет зарегистрированных пользователей и гости: 1