Форсаж 8 / The Fate of the Furious (Ф. Гэри Грей / F. Gary Gray) [2017, США, боевик, триллер, криминал, приключения, BDRip 1080p] Dub (iTunes) + Sub Rus, Eng + Original Eng

 Статистика раздачи 
Размер: 17.14 ГБ   |  Зарегистрирован: 16 сен 2018, 19:14   |   .torrent скачан: 38 раз
Сидеров: 9  [ 0 байт/сек ]     Личеров: 3  [ 0 байт/сек ]  
  
Аватара пользователя
 
Раздал: 0 байт
Скачал: 0 байт
Ратио: Inf.
Сообщения: 174825
Стаж: 7 лет 7 месяцев 7 дней
Откуда: Rossiya

Форсаж 8 / The Fate of the Furious
Страна: США
Студия: Original Film, One Race Films, Itaca Films
Жанр: боевик, триллер, криминал, приключения
Год выпуска: 2017
Продолжительность: 02:15:57
Перевод: Профессиональный (дублированный) iTunes
Субтитры: русские (форс., полные) английские (форс. (хардсаб), полные, SDH)
Оригинальная аудиодорожка: английский
Режиссер: Ф. Гэри Грей / F. Gary Gray
В ролях: Вин Дизель, Дуэйн Джонсон, Джейсон Стэйтем, Мишель Родригес, Тайриз Гибсон, Лудакрис, Натали Эммануэль, Курт Рассел, Скотт Иствуд, Шарлиз Терон
Описание: Пристегните ремни - гонка продолжается. Гавана, Берлин, Нью-Йорк - для самой крутой команды в мире нет ничего невозможного, пока они вместе. Но когда на их пути окажется одна из самых красивых женщин на планете и по совместительству королева киберпреступности, дороги друзей разойдутся.

Тип релиза: BDRip 1080p
Контейнер: MKV
Видео: MPEG-4 AVC, 16.2 Mбит/с, 1920x804, 23,976 fps
Аудио: Rus, AC3, 384 kb/s (6 ch), 48 kHz
Аудио 2: Eng, DTS, 1510 kb/s (6 ch), 48 kHz
Формат субтитров: softsub (SRT)
Format : Matroska
Format version : Version 4 / Version 2
File size : 17.1 GiB
Duration : 2 h 15 min
Overall bit rate : 18.0 Mb/s
Movie name : Форсаж 8. (Tonik)
Encoded date : UTC 2017-07-06 19:55:02
Writing application : mkvmerge v7.1.0 ('Good Love') 64bit built on Jul 27 2014 13:06:55
Writing library : libebml v1.3.0 + libmatroska v1.4.1
Video
ID : 1
Format : AVC
Format/Info : Advanced Video Codec
Format profile : High@L4.1
Format settings, CABAC : Yes
Format settings, ReFrames : 5 frames
Codec ID : V_MPEG4/ISO/AVC
Duration : 2 h 15 min
Bit rate : 16.2 Mb/s
Width : 1 920 pixels
Height : 804 pixels
Display aspect ratio : 2.40:1
Frame rate mode : Constant
Frame rate : 23.976 (24000/1001) FPS
Color space : YUV
Chroma subsampling : 4:2:0
Bit depth : 8 bits
Scan type : Progressive
Bits/(Pixel*Frame) : 0.436
Stream size : 15.3 GiB (89%)
Writing library : x264 core 150 r2833+58 090e24f t_mod_Custom [8-bit@all X86_64]
Encoding settings : cabac=1 / ref=5 / deblock=1:-3:-3 / analyse=0x3:0x133 / me=umh / subme=11 / psy=1 / fade_compensate=0.00 / psy_rd=1.05:0.00 / mixed_ref=1 / me_range=32 / chroma_me=1 / trellis=2 / 8x8dct=1 / cqm=0 / deadzone=6,6 / fast_pskip=0 / chroma_qp_offset=-2 / threads=16 / lookahead_threads=2 / sliced_threads=0 / nr=0 / decimate=0 / interlaced=0 / bluray_compat=0 / constrained_intra=0 / fgo=0 / bframes=8 / b_pyramid=2 / b_adapt=2 / b_bias=0 / direct=3 / weightb=1 / open_gop=0 / weightp=2 / keyint=250 / keyint_min=23 / scenecut=40 / intra_refresh=0 / rc_lookahead=120 / rc=crf / mbtree=0 / crf=16.8000 / qcomp=0.60 / qpmin=0:0:0 / qpmax=69:69:69 / qpstep=4 / vbv_maxrate=62500 / vbv_bufsize=78125 / crf_max=0.0 / nal_hrd=none / filler=0 / ip_ratio=1.30 / pb_ratio=1.20 / aq=3:0.80 / aq-sensitivity=10.00 / aq-factor=1.00:1.00:1.00 / aq2=0 / aq3=0 / zones=27,588,crf=16/12045,12119,crf=14/12790,12811,crf=14/17093,18914,crf=15.5/29509,29782,crf=14/29783,36132,crf=14.8/48004,48042,crf=14.8/49195,49311,crf=14/63015,67518,crf=15.3/68710,78470,crf=14.8/87194,88053,crf=13/99905,99953,crf=14.8/108762,108812,crf=13.8/117140,117365,crf=14.8/117617,120103,crf=15.3/138871,138888,crf=14.8/140866,141336,crf=14.8/142645,142783,crf=13.8/142830,143059,crf=13.8/143123,143342,crf=13.8/143440,143600,crf=14.8/144556,144752,crf=14.8/145867,145936,crf=14.8/148542,148559,crf=14.8/148614,148692,crf=14.8/149102,149264,crf=14.8/151022,151065,crf=14.8/151891,151921,crf=13.8/151958,152395,crf=13.8/156689,156853,crf=15.8/161098,161193,crf=14.8/162012,162103,crf=15.3/162426,162670,crf=14.8/162831,163052,crf=13.8/170243,170274,crf=14.8/170445,170550,crf=13.8/170990,171034,crf=14.8/171187,171310,crf=14.8/171634,171799,crf=13/172435,172878,crf=14.8/173172,173576,crf=13.8/175420,175525,crf=14.8/182530,195580,crf=19
Language : English
Default : Yes
Forced : No
Color range : Limited
Matrix coefficients : BT.709
Audio #1
ID : 2
Format : AC-3
Format/Info : Audio Coding 3
Format settings, Endianness : Big
Codec ID : A_AC3
Duration : 2 h 15 min
Bit rate mode : Constant
Bit rate : 384 kb/s
Channel(s) : 6 channels
Channel positions : Front: L C R, Side: L R, LFE
Sampling rate : 48.0 kHz
Frame rate : 31.250 FPS (1536 spf)
Bit depth : 16 bits
Compression mode : Lossy
Stream size : 373 MiB (2%)
Title : iTunes
Language : Russian
Service kind : Complete Main
Default : Yes
Forced : No
Audio #2
ID : 3
Format : DTS
Format/Info : Digital Theater Systems
Mode : 16
Format settings, Endianness : Big
Codec ID : A_DTS
Duration : 2 h 15 min
Bit rate mode : Constant
Bit rate : 1 509 kb/s
Channel(s) : 6 channels
Channel positions : Front: L C R, Side: L R, LFE
Sampling rate : 48.0 kHz
Frame rate : 93.750 FPS (512 spf)
Bit depth : 24 bits
Compression mode : Lossy
Stream size : 1.43 GiB (8%)
Language : English
Default : No
Forced : No
Text #1
ID : 4
Format : UTF-8
Codec ID : S_TEXT/UTF8
Codec ID/Info : UTF-8 Plain Text
Duration : 2 h 7 min
Bit rate : 1 b/s
Count of elements : 43
Stream size : 1.57 KiB (0%)
Title : Forced
Language : Russian
Default : Yes
Forced : No
Text #2
ID : 5
Format : UTF-8
Codec ID : S_TEXT/UTF8
Codec ID/Info : UTF-8 Plain Text
Duration : 2 h 14 min
Bit rate : 76 b/s
Count of elements : 1513
Stream size : 75.9 KiB (0%)
Language : Russian
Default : No
Forced : No
Text #3
ID : 6
Format : UTF-8
Codec ID : S_TEXT/UTF8
Codec ID/Info : UTF-8 Plain Text
Duration : 1 h 48 min
Bit rate : 1 b/s
Count of elements : 55
Stream size : 1.26 KiB (0%)
Title : Forced
Language : English
Default : No
Forced : No
Text #4
ID : 7
Format : UTF-8
Codec ID : S_TEXT/UTF8
Codec ID/Info : UTF-8 Plain Text
Duration : 2 h 4 min
Bit rate : 59 b/s
Count of elements : 1841
Stream size : 54.0 KiB (0%)
Title : SDH
Language : English
Default : No
Forced : No
Menu
00:00:00.000 : en:00:00:00.000
00:13:08.913 : en:00:13:08.913
00:20:30.771 : en:00:20:30.771
00:26:38.639 : en:00:26:38.639
00:32:26.778 : en:00:32:26.778
00:36:40.573 : en:00:36:40.573
00:43:35.613 : en:00:43:35.613
00:47:45.780 : en:00:47:45.780
00:56:00.732 : en:00:56:00.732
01:04:08.303 : en:01:04:08.303
01:09:08.061 : en:01:09:08.061
01:13:24.275 : en:01:13:24.275
01:21:25.714 : en:01:21:25.714
01:29:29.948 : en:01:29:29.948
01:35:12.457 : en:01:35:12.457
01:39:55.781 : en:01:39:55.781
01:45:00.711 : en:01:45:00.711
01:53:01.858 : en:01:53:01.858
02:01:51.262 : en:02:01:51.262
02:06:45.097 : en:02:06:45.097
Замена видео
Не забывайте говорить Спасибо. Не уходите с раздачи!   
Торрент: Зарегистрирован [16 сен 2018, 19:14] Для скачивания .torrent
необходима регистрация
Или скачать с помощью
MediaGet
Статус:
Проверен
 
.torrent скачан: 38 раз
Размер: 17.14 ГБ (18 403 500 557 байт)
   Стать Автором раздачи
   
Цитата

Вернуться в Зарубежное кино (HD Video)

Кто сейчас на конференции

Сейчас эту тему просматривают: нет зарегистрированных пользователей и гости: 1