Черный шар / Blackball (2003) WEB-DL [H.264/1080p]

 Статистика раздачи 
Размер: 9.88 ГБ   |  Зарегистрирован: 16 сен 2018, 19:12   |   .torrent скачан: 0 раз
Сидеров: 0  [ 0 байт/сек ]     Личеров: 0  [ 0 байт/сек ]  
  
Аватара пользователя
 
Раздал: 0 байт
Скачал: 0 байт
Ратио: Inf.
Сообщения: 184678
Стаж: 7 лет 9 месяцев 4 дня
Откуда: Rossiya
СообщениеДобавлено: 16 сен 2018, 19:12


Черный шар / Blackball (2003) WEB-DL [H.264/1080p]

«Feel The Passion Of The Balls»
Производство: Великобритания / Icon Entertainmnet International, Isle of Man Film Ltd., Midfield Films
Жанр: Драма, Комедия

Режиссер: Мэл Смит
Актеры: Пол Кэйб, Джеймс Кромуэлл, Элис Эванс, Бернард Криббинс, Джонни Вегас, Винс Вон, Имелда Стонтон, Джеймс Флит, Дэвид Райалл, Иэн МакНис, Кеннет Крэнэм

Описание:
B старой доброй Англии игра в шары — спорт джентльменов, посему бесшабашный Клифф Старки — сущий позор для уважаемой команды городка Торкей. Этот лохматый дерзкий юнец бросает вызов за вызовом 23-кратному чемпиону Рэю Спейту и тайком встречается с его очаровательной дочкой. К сожалению, даже прирожденный талант гениального игрока в шары не может спасти его от 15-летней дисквалификации.
Но мир в Торкее вновь нарушается, когда заезжий агент из Штатов мигом превращает Клиффа в суперзвезду, а местная команда получает шанс сразиться в суперматче с грозными австралийцами. Только Клифф может подарить им победу, но удастся ли чопорным провинциалам вернуть себе изгнанного гения, не уронив при этом свое достоинство?



Возраст: 12+ (зрителям, достигшим 12 лет)
Рейтинг MPAA: R (лицам до 17 лет обязательно присутствие взрослого)

Продолжительность: 01:36:51
Качество видео: WEB-DL 1080p (Amazon)
Перевод: Профессиональный (многоголосый закадровый)
Субтитры: Английские

Видео: AVC/H.264, 1920x1080, ~14 Mbps
Аудио #1: AC3, 6 ch, 384 kbps (русский)
Аудио #2: AC3, 2 ch, 224 kbps (английский)
Код: Выделить всёGeneral
Complete name               : 4erny.shar.2003.Web-DL.1080p.mkv
Format                      : Matroska
Format version              : Version 4 / Version 2
File size                   : 9.88 GiB
Duration                    : 1 h 36 min
Overall bit rate mode       : Variable
Overall bit rate            : 14.6 Mb/s
Encoded date                : UTC 2017-06-26 13:31:54
Writing application         : mkvmerge v12.0.0 ('Trust / Lust') 64bit
Writing library             : libebml v1.3.4 + libmatroska v1.4.5

Video
ID                          : 1
Format                      : AVC
Format/Info                 : Advanced Video Codec
Format profile              : High@L4
Format settings, CABAC      : Yes
Format settings, ReFrames   : 4 frames
Codec ID                    : V_MPEG4/ISO/AVC
Duration                    : 1 h 36 min
Bit rate mode               : Variable
Bit rate                    : 14.0 Mb/s
Maximum bit rate            : 15.0 Mb/s
Width                       : 1 920 pixels
Height                      : 1 080 pixels
Display aspect ratio        : 16:9
Frame rate mode             : Constant
Frame rate                  : 24.000 FPS
Color space                 : YUV
Chroma subsampling          : 4:2:0
Bit depth                   : 8 bits
Scan type                   : Progressive
Bits/(Pixel*Frame)          : 0.281
Stream size                 : 9.47 GiB (96%)
Default                     : Yes
Forced                      : No
Color range                 : Limited
Color primaries             : BT.709
Transfer characteristics    : BT.709
Matrix coefficients         : BT.709

Audio #1
ID                          : 2
Format                      : AC-3
Format/Info                 : Audio Coding 3
Format settings, Endianness : Big
Codec ID                    : A_AC3
Duration                    : 1 h 36 min
Bit rate mode               : Constant
Bit rate                    : 384 kb/s
Channel(s)                  : 6 channels
Channel positions           : Front: L C R, Side: L R, LFE
Sampling rate               : 48.0 kHz
Frame rate                  : 31.250 FPS (1536 spf)
Bit depth                   : 16 bits
Compression mode            : Lossy
Stream size                 : 266 MiB (3%)
Title                       : MVO
Language                    : Russian
Service kind                : Complete Main
Default                     : No
Forced                      : No

Audio #2
ID                          : 3
Format                      : E-AC-3
Format/Info                 : Enhanced Audio Coding 3
Format settings, Endianness : Big
Codec ID                    : A_EAC3
Duration                    : 1 h 36 min
Bit rate mode               : Constant
Bit rate                    : 224 kb/s
Channel(s)                  : 2 channels
Channel positions           : Front: L R
Sampling rate               : 48.0 kHz
Frame rate                  : 187.500 FPS (256 spf)
Compression mode            : Lossy
Stream size                 : 155 MiB (2%)
Language                    : English
Service kind                : Complete Main
Default                     : No
Forced                      : No

Text
ID                          : 4
Format                      : UTF-8
Codec ID                    : S_TEXT/UTF8
Codec ID/Info               : UTF-8 Plain Text
Duration                    : 1 h 32 min
Bit rate                    : 85 b/s
Count of elements           : 1606
Stream size                 : 57.5 KiB (0%)
Language                    : English
Default                     : No
Forced                      : No

Скриншоты:




Время раздачи: 24/7 (до появления первых 3-5 скачавших)
Не забывайте говорить Спасибо. Не уходите с раздачи!   
Торрент: Зарегистрирован [16 сен 2018, 19:12] Для скачивания .torrent
необходима регистрация
Или скачать с помощью
MediaGet
Статус:
Проверен
 
.torrent скачан: 0 раз
Хэш: ca3463fa9d71e81bd3162fd9d896fa809a28a678
Размер: 9.88 ГБ (10 611 366 344 байт)
   Стать Автором раздачи
   
Цитата

Вернуться в Зарубежное кино (HD Video)

Кто сейчас на конференции

Сейчас эту тему просматривают: нет зарегистрированных пользователей и гости: 1