Лак для волос / Hairspray (2007) BDRip [H.264/1080p]

 Статистика раздачи 
Размер: 9.3 ГБ   |  Зарегистрирован: 16 сен 2018, 19:11   |   .torrent скачан: 0 раз
Сидеров: 0  [ 0 байт/сек ]     Личеров: 0  [ 0 байт/сек ]  
  
Аватара пользователя
 
Раздал: 0 байт
Скачал: 0 байт
Ратио: Inf.
Сообщения: 184678
Стаж: 7 лет 8 месяцев 24 дня
Откуда: Rossiya
СообщениеДобавлено: 16 сен 2018, 19:11


Лак для волос / Hairspray (2007) BDRip [H.264/1080p]

Производство: США / New Line Cinema & Ingenious Film Partners
Жанр: Музыка, мелодрама, комедия, семейный

Режиссер: Адам Шенкман
Актеры: Никки Блонски, Джон Траволта, Мишель Пфайффер, Кристофер Уокен, Аманда Байнс, Джеймс Марсден, Куин Латифа, Зак Эфрон, Элайджа Келли, Эллисон Дженни

Описание:
Достаточно пухленькая девушка Трейси Тернблад, мечтающая стать танцовщицей, доказывает на собственном примере, как можно преодолеть трудности и стать звездой популярного танцевального телешоу.



Возраст: 12+ (зрителям, достигшим 12 лет)
Рейтинг MPAA: PG (рекомендуется присутствие родителей)

Релиз от: RG NNM Club Video

Продолжительность: 01:56:07
Качество видео: BDRip
Перевод: Дублированный (песни без перевода), Многоголосый закадровый (песни с переводом)
Субтитры: Русские (только на песни, полные), Украинские, Английские

Видео: AVC/H.264, 1920x816, ~10 Mbps
Аудио 1: AC3, 6 ch, 448 kbps - Русский (DUB)
Аудио 2: AC3, 6 ch, 384 kbps - Русский (MVO)
Аудио 3: AC3, 6 ch, 640 kbps - Английский (Оригинал)
Код: Выделить всё---[Information] [21.06.2017 02:13:53] x264 [info]: frame I:1179  Avg QP:14.46  size:176162
---[Information] [21.06.2017 02:13:53] x264 [info]: frame P:56041 Avg QP:16.00  size: 87218
---[Information] [21.06.2017 02:13:53] x264 [info]: frame B:109820 Avg QP:18.13  size: 32875
Код: Выделить всёGeneral
Format                                   : Matroska
Format version                           : Version 4 / Version 2
File size                                : 9.30 GiB
Duration                                 : 1 h 56 min
Overall bit rate                         : 11.5 Mb/s
Encoded date                             : UTC 2017-06-22 12:44:22
Writing application                      : mkvmerge v12.0.0 ('Trust / Lust') 64bit
Writing library                          : libebml v1.3.4 + libmatroska v1.4.5
Attachments                              : poster.jpg / 1080.log

Video
ID                                       : 1
Format                                   : AVC
Format/Info                              : Advanced Video Codec
Format profile                           :
Format settings, CABAC                   : Yes
Format settings, ReFrames                : 5 frames
Codec ID                                 : V_MPEG4/ISO/AVC
Duration                                 : 1 h 56 min
Bit rate                                 : 10 000 kb/s
Width                                    : 1 920 pixels
Height                                   : 816 pixels
Display aspect ratio                     : 2.35:1
Frame rate mode                          : Constant
Frame rate                               : 23.976 (24000/1001) FPS
Color space                              : YUV
Chroma subsampling                       : 4:2:0
Bit depth                                : 8 bits
Scan type                                : Progressive
Bits/(Pixel*Frame)                       : 0.266
Stream size                              : 8.11 GiB (87%)
Writing library                          : x264 core 148 r2744 b97ae06
Encoding settings                        : cabac=1 / ref=5 / deblock=1:-3:-3 / analyse=0x3:0x133 / me=umh / subme=9 / psy=1 / psy_rd=1.05:0.00 / mixed_ref=1 / me_range=32 / chroma_me=1 / trellis=2 / 8x8dct=1 / cqm=0 / deadzone=21,11 / fast_pskip=0 / chroma_qp_offset=-2 / threads=6 / lookahead_threads=1 / sliced_threads=0 / nr=0 / decimate=0 / interlaced=0 / bluray_compat=0 / constrained_intra=0 / bframes=16 / b_pyramid=2 / b_adapt=2 / b_bias=0 / direct=3 / weightb=1 / open_gop=0 / weightp=2 / keyint=240 / keyint_min=23 / scenecut=40 / intra_refresh=0 / rc_lookahead=60 / rc=2pass / mbtree=0 / bitrate=10000 / ratetol=1.0 / qcomp=0.70 / qpmin=10 / qpmax=51 / qpstep=4 / cplxblur=20.0 / qblur=0.5 / vbv_maxrate=50000 / vbv_bufsize=50000 / nal_hrd=none / filler=0 / ip_ratio=1.40 / pb_ratio=1.30 / aq=1:0.85
Language                                 : English
Default                                  : Yes
Forced                                   : No

Audio #1
ID                                       : 2
Format                                   : AC-3
Format/Info                              : Audio Coding 3
Format settings, Endianness              : Big
Codec ID                                 : A_AC3
Duration                                 : 1 h 56 min
Bit rate mode                            : Constant
Bit rate                                 : 448 kb/s
Channel(s)                               : 6 channels
Channel positions                        : Front: L C R, Side: L R, LFE
Sampling rate                            : 48.0 kHz
Frame rate                               : 31.250 FPS (1536 spf)
Bit depth                                : 16 bits
Compression mode                         : Lossy
Stream size                              : 372 MiB (4%)
Title                                    : DUB
Language                                 : Russian
Service kind                             : Complete Main
Default                                  : Yes
Forced                                   : No

Audio #2
ID                                       : 3
Format                                   : AC-3
Format/Info                              : Audio Coding 3
Format settings, Endianness              : Big
Codec ID                                 : A_AC3
Duration                                 : 1 h 56 min
Bit rate mode                            : Constant
Bit rate                                 : 384 kb/s
Channel(s)                               : 6 channels
Channel positions                        : Front: L C R, Side: L R, LFE
Sampling rate                            : 48.0 kHz
Frame rate                               : 31.250 FPS (1536 spf)
Bit depth                                : 16 bits
Compression mode                         : Lossy
Stream size                              : 319 MiB (3%)
Title                                    : MVO
Language                                 : Russian
Service kind                             : Complete Main
Default                                  : No
Forced                                   : No

Audio #3
ID                                       : 4
Format                                   : AC-3
Format/Info                              : Audio Coding 3
Format settings, Endianness              : Big
Codec ID                                 : A_AC3
Duration                                 : 1 h 56 min
Bit rate mode                            : Constant
Bit rate                                 : 640 kb/s
Channel(s)                               : 6 channels
Channel positions                        : Front: L C R, Side: L R, LFE
Sampling rate                            : 48.0 kHz
Frame rate                               : 31.250 FPS (1536 spf)
Bit depth                                : 16 bits
Compression mode                         : Lossy
Stream size                              : 532 MiB (6%)
Language                                 : English
Service kind                             : Complete Main
Default                                  : No
Forced                                   : No

Text #1
ID                                       : 5
Format                                   : UTF-8
Codec ID                                 : S_TEXT/UTF8
Codec ID/Info                            : UTF-8 Plain Text
Duration                                 : 1 h 55 min
Bit rate                                 : 62 b/s
Count of elements                        : 1121
Stream size                              : 53.1 KiB (0%)
Title                                    : forced
Language                                 : Russian
Default                                  : Yes
Forced                                   : Yes

Text #2
ID                                       : 6
Format                                   : UTF-8
Codec ID                                 : S_TEXT/UTF8
Codec ID/Info                            : UTF-8 Plain Text
Duration                                 : 1 h 55 min
Bit rate                                 : 134 b/s
Count of elements                        : 2198
Stream size                              : 114 KiB (0%)
Title                                    : full
Language                                 : Russian
Default                                  : No
Forced                                   : No

Text #3
ID                                       : 7
Format                                   : UTF-8
Codec ID                                 : S_TEXT/UTF8
Codec ID/Info                            : UTF-8 Plain Text
Duration                                 : 1 h 54 min
Bit rate                                 : 142 b/s
Count of elements                        : 2101
Stream size                              : 120 KiB (0%)
Language                                 : Ukrainian
Default                                  : No
Forced                                   : No

Text #4
ID                                       : 8
Format                                   : UTF-8
Codec ID                                 : S_TEXT/UTF8
Codec ID/Info                            : UTF-8 Plain Text
Duration                                 : 1 h 53 min
Bit rate                                 : 84 b/s
Count of elements                        : 2480
Stream size                              : 70.9 KiB (0%)
Language                                 : English
Default                                  : No
Forced                                   : No

Menu
00:00:00.000                             : en:Chapter 1
00:06:17.001                             : en:Chapter 2
00:11:34.944                             : en:Chapter 3
00:16:29.071                             : en:Chapter 4
00:20:30.812                             : en:Chapter 5
00:24:04.443                             : en:Chapter 6
00:28:10.647                             : en:Chapter 7
00:33:32.969                             : en:Chapter 8
00:37:24.492                             : en:Chapter 9
00:46:35.375                             : en:Chapter 10
00:52:14.756                             : en:Chapter 11
00:57:47.714                             : en:Chapter 12
01:07:57.823                             : en:Chapter 13
01:13:29.655                             : en:Chapter 14
01:18:14.272                             : en:Chapter 15
01:24:20.305                             : en:Chapter 16
01:28:21.963                             : en:Chapter 17
01:35:14.166                             : en:Chapter 18
01:41:49.561                             : en:Chapter 19
01:46:17.412                             : en:Chapter 20


Скриншоты:




Время раздачи: 24/7 (круглосуточно) (до появления первых 3-5 скачавших)
Не забывайте говорить Спасибо. Не уходите с раздачи!   
Торрент: Зарегистрирован [16 сен 2018, 19:11] Для скачивания .torrent
необходима регистрация
Или скачать с помощью
MediaGet
Статус:
Проверен
 
.torrent скачан: 0 раз
Хэш: 758badb60505dbf24dea6992433238bf99ad5a97
Размер: 9.3 ГБ (9 990 502 672 байт)
   Стать Автором раздачи
   
Цитата

Вернуться в Зарубежное кино (HD Video)

Кто сейчас на конференции

Сейчас эту тему просматривают: нет зарегистрированных пользователей и гости: 1