Лак для волос / Hairspray (2007) BDRemux [VC-1/1080p]

 Статистика раздачи 
Размер: 16.55 ГБ   |  Зарегистрирован: 16 сен 2018, 19:11   |   .torrent скачан: 0 раз
Сидеров: 4  [ 0 байт/сек ]     Личеров: 3  [ 0 байт/сек ]  
  
Аватара пользователя
 
Раздал: 0 байт
Скачал: 0 байт
Ратио: Inf.
Сообщения: 174825
Стаж: 7 лет 7 месяцев 7 дней
Откуда: Rossiya
СообщениеДобавлено: 16 сен 2018, 19:11


Лак для волос / Hairspray (2007) BDRemux [VC-1/1080p]

Производство: США / New Line Cinema & Ingenious Film Partners
Жанр: Музыка, мелодрама, комедия, семейный

Режиссер: Адам Шенкман
Актеры: Никки Блонски, Джон Траволта, Мишель Пфайффер, Кристофер Уокен, Аманда Байнс, Джеймс Марсден, Куин Латифа, Зак Эфрон, Элайджа Келли, Эллисон Дженни

Описание:
Достаточно пухленькая девушка Трейси Тернблад, мечтающая стать танцовщицей, доказывает на собственном примере, как можно преодолеть трудности и стать звездой популярного танцевального телешоу.



Возраст: 12+ (зрителям, достигшим 12 лет)
Рейтинг MPAA: PG (рекомендуется присутствие родителей)

Релиз от: RG NNM Club Video

Продолжительность: 01:56:07
Качество видео: BDRemux
Перевод: Дублированный (песни без перевода), Многоголосый закадровый (песни с переводом)
Субтитры: Русские (только на песни, полные), Украинские, Английские

Видео: VC-1, 1920x1080, ~14 Mbps
Аудио 1: AC3, 6 ch, 448 Kbps - Русский (DUB)
Аудио 2: AC3, 6 ch, 384 Kbps - Русский (MVO)
Аудио 3: DTS-HD MA, 8 ch, ~5579 kbps / 1509 kbps - Английский (Оригинал)
Код: Выделить всёGeneral
Format                                   : Matroska
Format version                           : Version 4 / Version 2
File size                                : 16.6 GiB
Duration                                 : 1 h 56 min
Overall bit rate                         : 20.4 Mb/s
Encoded date                             : UTC 2017-06-22 06:44:25
Writing application                      : mkvmerge v12.0.0 ('Trust / Lust') 64bit
Writing library                          : libebml v1.3.4 + libmatroska v1.4.5
Attachments                              : poster.jpg

Video
ID                                       : 1
Format                                   : VC-1
Format profile                           : Advanced@L3
Codec ID                                 : V_MS/VFW/FOURCC / WVC1
Codec ID/Hint                            : Microsoft
Duration                                 : 1 h 56 min
Bit rate                                 : 14.0 Mb/s
Width                                    : 1 920 pixels
Height                                   : 1 080 pixels
Display aspect ratio                     : 16:9
Frame rate mode                          : Constant
Frame rate                               : 23.976 (24000/1001) FPS
Color space                              : YUV
Chroma subsampling                       : 4:2:0
Bit depth                                : 8 bits
Scan type                                : Progressive
Compression mode                         : Lossy
Bits/(Pixel*Frame)                       : 0.281
Stream size                              : 11.3 GiB (69%)
Language                                 : English
Default                                  : Yes
Forced                                   : No

Audio #1
ID                                       : 2
Format                                   : AC-3
Format/Info                              : Audio Coding 3
Format settings, Endianness              : Big
Codec ID                                 : A_AC3
Duration                                 : 1 h 56 min
Bit rate mode                            : Constant
Bit rate                                 : 448 kb/s
Channel(s)                               : 6 channels
Channel positions                        : Front: L C R, Side: L R, LFE
Sampling rate                            : 48.0 kHz
Frame rate                               : 31.250 FPS (1536 spf)
Bit depth                                : 16 bits
Compression mode                         : Lossy
Stream size                              : 372 MiB (2%)
Title                                    : DUB
Language                                 : Russian
Service kind                             : Complete Main
Default                                  : Yes
Forced                                   : No

Audio #2
ID                                       : 3
Format                                   : AC-3
Format/Info                              : Audio Coding 3
Format settings, Endianness              : Big
Codec ID                                 : A_AC3
Duration                                 : 1 h 56 min
Bit rate mode                            : Constant
Bit rate                                 : 384 kb/s
Channel(s)                               : 6 channels
Channel positions                        : Front: L C R, Side: L R, LFE
Sampling rate                            : 48.0 kHz
Frame rate                               : 31.250 FPS (1536 spf)
Bit depth                                : 16 bits
Compression mode                         : Lossy
Stream size                              : 319 MiB (2%)
Title                                    : MVO
Language                                 : Russian
Service kind                             : Complete Main
Default                                  : No
Forced                                   : No

Audio #3
ID                                       : 4
Format                                   : DTS
Format/Info                              : Digital Theater Systems
Format profile                           : MA / Core
Mode                                     : 16
Format settings, Endianness              : Big
Codec ID                                 : A_DTS
Duration                                 : 1 h 56 min
Bit rate mode                            : Variable / Constant
Bit rate                                 : 5 579 kb/s / 1 509 kb/s
Channel(s)                               : 8 channels / 6 channels
Channel positions                        : Front: L C R, Side: L R, Wide: L R, LFE / Front: L C R, Side: L R, LFE
Sampling rate                            : 48.0 kHz
Frame rate                               : 93.750 FPS (512 spf)
Bit depth                                : 24 bits
Compression mode                         : Lossless / Lossy
Stream size                              : 4.53 GiB (27%)
Language                                 : English
Default                                  : No
Forced                                   : No

Text #1
ID                                       : 5
Format                                   : UTF-8
Codec ID                                 : S_TEXT/UTF8
Codec ID/Info                            : UTF-8 Plain Text
Duration                                 : 1 h 55 min
Bit rate                                 : 62 b/s
Count of elements                        : 1121
Stream size                              : 53.1 KiB (0%)
Language                                 : Russian
Default                                  : Yes
Forced                                   : Yes

Text #2
ID                                       : 6
Format                                   : UTF-8
Codec ID                                 : S_TEXT/UTF8
Codec ID/Info                            : UTF-8 Plain Text
Duration                                 : 1 h 55 min
Bit rate                                 : 134 b/s
Count of elements                        : 2198
Stream size                              : 114 KiB (0%)
Language                                 : Russian
Default                                  : No
Forced                                   : No

Text #3
ID                                       : 7
Format                                   : UTF-8
Codec ID                                 : S_TEXT/UTF8
Codec ID/Info                            : UTF-8 Plain Text
Duration                                 : 1 h 54 min
Bit rate                                 : 142 b/s
Count of elements                        : 2101
Stream size                              : 120 KiB (0%)
Language                                 : Ukrainian
Default                                  : No
Forced                                   : No

Text #4
ID                                       : 8
Format                                   : UTF-8
Codec ID                                 : S_TEXT/UTF8
Codec ID/Info                            : UTF-8 Plain Text
Duration                                 : 1 h 53 min
Bit rate                                 : 84 b/s
Count of elements                        : 2480
Stream size                              : 70.9 KiB (0%)
Language                                 : English
Default                                  : No
Forced                                   : No

Menu
00:00:00.000                             : en:Chapter 1
00:06:17.001                             : en:Chapter 2
00:11:34.944                             : en:Chapter 3
00:16:29.071                             : en:Chapter 4
00:20:30.812                             : en:Chapter 5
00:24:04.443                             : en:Chapter 6
00:28:10.647                             : en:Chapter 7
00:33:32.969                             : en:Chapter 8
00:37:24.492                             : en:Chapter 9
00:46:35.375                             : en:Chapter 10
00:52:14.756                             : en:Chapter 11
00:57:47.714                             : en:Chapter 12
01:07:57.823                             : en:Chapter 13
01:13:29.655                             : en:Chapter 14
01:18:14.272                             : en:Chapter 15
01:24:20.305                             : en:Chapter 16
01:28:21.963                             : en:Chapter 17
01:35:14.166                             : en:Chapter 18
01:41:49.561                             : en:Chapter 19
01:46:17.412                             : en:Chapter 20

Скриншоты:




Время раздачи: 24/7 (круглосуточно) (до появления первых 3-5 скачавших)
Не забывайте говорить Спасибо. Не уходите с раздачи!   
Торрент: Зарегистрирован [16 сен 2018, 19:11] Для скачивания .torrent
необходима регистрация
Или скачать с помощью
MediaGet
Статус:
Проверен
 
.torrent скачан: 0 раз
Размер: 16.55 ГБ (17 772 252 487 байт)
   Стать Автором раздачи
   
Цитата

Вернуться в Зарубежное кино (HD Video)

Кто сейчас на конференции

Сейчас эту тему просматривают: нет зарегистрированных пользователей и гости: 1