Черное Рождество / Black Christmas (1974) BDRip [H.264/1080p]

 Статистика раздачи 
Размер: 19.96 ГБ   |  Зарегистрирован: 16 сен 2018, 19:10   |   .torrent скачан: 0 раз
Сидеров: 1  [ 0 байт/сек ]     Личеров: 0  [ 0 байт/сек ]  
  
Аватара пользователя
 
Раздал: 0 байт
Скачал: 0 байт
Ратио: Inf.
Сообщения: 184678
Стаж: 7 лет 9 месяцев 4 дня
Откуда: Rossiya

Черное Рождество / Black Christmas (1974) BDRip [H.264/1080p]

Производство: Канада / August Films, Canadian Film Development Corporation (CFDC), Famous Players, Film Funding Ltd. of Canada, Vision IV
Жанр: Детектив, Триллер, Ужасы

Режиссер: Боб Кларк
Продюсер: Боб Кларк, Герри Эрбейд, Файндлей Куинн
Актеры: Оливия Хасси, Кейр Дуллеа, Марго Киддер, Джон Сэксон, Мэриэн Уолдман, Андреа Мартин, Джеймс Эдмонд, Даг МакГрат, Арт Хиндл, Линн Гриффин

Описание:
Университетский городок Бедфорда. Студентки готовятся отправиться на зимние рождественские каникулы. Барб просит своих подруг Джесс и Фил остаться с ней на несколько дней, чтобы покататься на лыжах. В доме звонит телефон. Барб берет трубку, но на том конце провода никто не отвечает. Потом мужской голос смеется и говорит разные непристойности. Барб обзывает говорящего, на что тот отвечает, что убьет ее. Барб бросает трубку. Именно после этого звонка девушки из университетского городка начинают потихоньку погибать одна за одной, до утра дотянут немногие.



Возраст: этот продукт не был классифицирован
Рейтинг MPAA: R (лицам до 17 лет обязательно присутствие взрослого)

Релиз от: RG NNM Club Video

Продолжительность: 01:37:52
Качество видео: BDRip
Перевод: Двухголосый, Авторский х2
Субтитры: Английские

Видео: AVC/H.264, 1912x1032, ~26 mbps, 23,976 fps
Аудио #01: AC3, 2 ch, 224 kbps (Русский - Двухголосый)
Аудио #02: AC3, 6 ch, 448 kbps (Русский - Авторский ''Сергей Визгунов'')
Аудио #03: AC3, 6 ch, 448 kbps (Русский - Авторский ''Андрей Дольский'')
Аудио #04: DTS, 6 ch, 1509 kbps (Английский)
Аудио #05: AC3, 2 ch, 192 kbps (Английский - Комментарии ''Джон Сэксон и Кейр Дуллеа'')
Аудио #06: AC3, 2 ch, 192 kbps (Английский - Комментарии ''Билли'')
Аудио #07: AC3, 2 ch, 192 kbps (Английский - Комментарии ''Боб Кларк'')
Код: Выделить всё-[Information] [20.06.2017 18:46:42] x264 [info]: frame I:649   Avg QP:17.84  size:261111
-[Information] [20.06.2017 18:46:42] x264 [info]: frame P:22730 Avg QP:19.56  size:175233
-[Information] [20.06.2017 18:46:42] x264 [info]: frame B:117399 Avg QP:21.77  size:127155
Код: Выделить всёОбщее
Уникальный идентификатор                 : 204518332748144725971490450537500889412 (0x99DCCC51B2264B58AEFC055D270FD144)
Полное имя                               : Black.Christmas1974.1080p.nnm_video.mkv
Формат                                   : Matroska
Версия формата                           : Version 2
Размер файла                             : 20,0 Гбайт
Продолжительность                        : 1 ч. 37 м.
Общий поток                              : 29,2 Мбит/сек
Название фильма                          : Черное Рождество (Black Christmas) RG NNM Club Video
Дата кодирования                         : UTC 2017-06-20 17:06:43
Программа кодирования                    : mkvmerge v10.0.0 ('To Drown In You') 64bit
Библиотека кодирования                   : libebml v1.3.4 + libmatroska v1.4.5
Attachments                              : Лог кодирования.log

Видео
Идентификатор                            : 1
Формат                                   : AVC
Формат/Информация                        : Advanced Video Codec
Профиль формата                          :
Параметр CABAC формата                   : Да
Параметр ReFrames формата                : 4 кадра
Идентификатор кодека                     : V_MPEG4/ISO/AVC
Продолжительность                        : 1 ч. 37 м.
Битрейт                                  : 26,0 Мбит/сек
Ширина                                   : 1912 пикселей
Высота                                   : 1032 пикселя
Соотношение сторон                       : 1,85:1
Режим частоты кадров                     : Постоянный
Частота кадров                           : 23,976 (24000/1001) кадра/сек
Цветовое пространство                    : YUV
Субдискретизация насыщенности            : 4:2:0
Битовая глубина                          : 8 бит
Тип развёртки                            : Прогрессивная
Бит/(Пиксели*Кадры)                      : 0.550
Размер потока                            : 17,4 Гбайт (87%)
Заголовок                                : Черное Рождество (Black Christmas)
Библиотека кодирования                   : x264 core 150 r2833 df79067
Настройки программы                      : cabac=1 / ref=4 / deblock=1:-1:-1 / analyse=0x3:0x133 / me=umh / subme=11 / psy=1 / psy_rd=1.00:0.15 / mixed_ref=1 / me_range=64 / chroma_me=1 / trellis=2 / 8x8dct=1 / cqm=0 / deadzone=21,11 / fast_pskip=0 / chroma_qp_offset=-3 / threads=6 / lookahead_threads=1 / sliced_threads=0 / nr=0 / decimate=0 / interlaced=0 / bluray_compat=0 / constrained_intra=0 / bframes=16 / b_pyramid=2 / b_adapt=2 / b_bias=0 / direct=3 / weightb=1 / open_gop=0 / weightp=2 / keyint=240 / keyint_min=23 / scenecut=40 / intra_refresh=0 / rc_lookahead=60 / rc=2pass / mbtree=0 / bitrate=26000 / ratetol=1.0 / qcomp=0.60 / qpmin=0 / qpmax=69 / qpstep=4 / cplxblur=20.0 / qblur=0.5 / vbv_maxrate=50000 / vbv_bufsize=62500 / nal_hrd=none / filler=0 / ip_ratio=1.40 / pb_ratio=1.30 / aq=1:1.00
Язык                                     : Kannada
Default                                  : Да
Forced                                   : Нет

Аудио #1
Идентификатор                            : 2
Формат                                   : AC-3
Формат/Информация                        : Audio Coding 3
Параметр Endianness формата              : Big
Идентификатор кодека                     : A_AC3
Продолжительность                        : 1 ч. 37 м.
Вид битрейта                             : Постоянный
Битрейт                                  : 224 Кбит/сек
Каналы                                   : 2 канала
Расположение каналов                     : Front: L R
Частота                                  : 48,0 КГц
Частота кадров                           : 31,250 кадров/сек (1536 spf)
Битовая глубина                          : 16 бит
Метод сжатия                             : С потерями
Размер потока                            : 157 Мбайт (1%)
Заголовок                                : Двухголосый ''Неизвестно'' (AC-3, Постоянный, 224 Кбит/сек, 2 канала, 48,0 КГц, 16 бит)
Язык                                     : Russian
ServiceKind/String                       : Complete Main
Default                                  : Да
Forced                                   : Нет

Аудио #2
Идентификатор                            : 3
Формат                                   : AC-3
Формат/Информация                        : Audio Coding 3
Параметр Endianness формата              : Big
Идентификатор кодека                     : A_AC3
Продолжительность                        : 1 ч. 37 м.
Вид битрейта                             : Постоянный
Битрейт                                  : 448 Кбит/сек
Каналы                                   : 6 каналов
Расположение каналов                     : Front: L C R, Side: L R, LFE
Частота                                  : 48,0 КГц
Частота кадров                           : 31,250 кадров/сек (1536 spf)
Битовая глубина                          : 16 бит
Метод сжатия                             : С потерями
Размер потока                            : 314 Мбайт (2%)
Заголовок                                : Авторский ''Сергей Визгунов'' (AC-3, Постоянный, 448 Кбит/сек, 6 каналов, 48,0 КГц, 16 бит)
Язык                                     : Russian
ServiceKind/String                       : Complete Main
Default                                  : Нет
Forced                                   : Нет

Аудио #3
Идентификатор                            : 4
Формат                                   : AC-3
Формат/Информация                        : Audio Coding 3
Параметр Endianness формата              : Big
Идентификатор кодека                     : A_AC3
Продолжительность                        : 1 ч. 37 м.
Вид битрейта                             : Постоянный
Битрейт                                  : 448 Кбит/сек
Каналы                                   : 6 каналов
Расположение каналов                     : Front: L C R, Side: L R, LFE
Частота                                  : 48,0 КГц
Частота кадров                           : 31,250 кадров/сек (1536 spf)
Битовая глубина                          : 16 бит
Метод сжатия                             : С потерями
Размер потока                            : 314 Мбайт (2%)
Заголовок                                : Авторский ''Андрей Дольский'' (AC-3, Постоянный, 448 Кбит/сек, 6 каналов, 48,0 КГц, 16 бит)
Язык                                     : Russian
ServiceKind/String                       : Complete Main
Default                                  : Нет
Forced                                   : Нет

Аудио #4
Идентификатор                            : 5
Формат                                   : DTS
Формат/Информация                        : Digital Theater Systems
Режим                                    : 16
Параметр Endianness формата              : Big
Идентификатор кодека                     : A_DTS
Продолжительность                        : 1 ч. 37 м.
Вид битрейта                             : Постоянный
Битрейт                                  : 1509 Кбит/сек
Каналы                                   : 6 каналов
Расположение каналов                     : Front: L C R, Side: L R, LFE
Частота                                  : 48,0 КГц
Частота кадров                           : 93,750 кадра/сек (512 spf)
Битовая глубина                          : 24 бит
Метод сжатия                             : С потерями
Размер потока                            : 1,03 Гбайт (5%)
Заголовок                                : Оригинал (DTS, Постоянный, 1509 Кбит/сек, 6 каналов, 48,0 КГц, 24 бит)
Язык                                     : English
Default                                  : Нет
Forced                                   : Нет

Аудио #5
Идентификатор                            : 6
Формат                                   : AC-3
Формат/Информация                        : Audio Coding 3
Параметр Endianness формата              : Big
Идентификатор кодека                     : A_AC3
Продолжительность                        : 1 ч. 37 м.
Вид битрейта                             : Постоянный
Битрейт                                  : 192 Кбит/сек
Каналы                                   : 2 канала
Расположение каналов                     : Front: L R
Частота                                  : 48,0 КГц
Частота кадров                           : 31,250 кадров/сек (1536 spf)
Битовая глубина                          : 16 бит
Метод сжатия                             : С потерями
Размер потока                            : 134 Мбайт (1%)
Заголовок                                : Оригинал ''Комментарии ''Джон Сэксон и Кейр Дуллеа'''' (AC-3, Постоянный, 192 Кбит/сек, 2 канала, 48,0 КГц, 16 бит)
Язык                                     : English
ServiceKind/String                       : Complete Main
Default                                  : Нет
Forced                                   : Нет

Аудио #6
Идентификатор                            : 7
Формат                                   : AC-3
Формат/Информация                        : Audio Coding 3
Параметр Endianness формата              : Big
Идентификатор кодека                     : A_AC3
Продолжительность                        : 1 ч. 37 м.
Вид битрейта                             : Постоянный
Битрейт                                  : 192 Кбит/сек
Каналы                                   : 2 канала
Расположение каналов                     : Front: L R
Частота                                  : 48,0 КГц
Частота кадров                           : 31,250 кадров/сек (1536 spf)
Битовая глубина                          : 16 бит
Метод сжатия                             : С потерями
Размер потока                            : 134 Мбайт (1%)
Заголовок                                : Оригинал ''Комментарии ''Билли'''' (AC-3, Постоянный, 192 Кбит/сек, 2 канала, 48,0 КГц, 16 бит)
Язык                                     : English
ServiceKind/String                       : Complete Main
Default                                  : Нет
Forced                                   : Нет

Аудио #7
Идентификатор                            : 8
Формат                                   : AC-3
Формат/Информация                        : Audio Coding 3
Параметр Endianness формата              : Big
Идентификатор кодека                     : A_AC3
Продолжительность                        : 1 ч. 37 м.
Вид битрейта                             : Постоянный
Битрейт                                  : 192 Кбит/сек
Каналы                                   : 2 канала
Расположение каналов                     : Front: L R
Частота                                  : 48,0 КГц
Частота кадров                           : 31,250 кадров/сек (1536 spf)
Битовая глубина                          : 16 бит
Метод сжатия                             : С потерями
Размер потока                            : 134 Мбайт (1%)
Заголовок                                : Оригинал ''Комментарии ''Боб Кларк'''' (AC-3, Постоянный, 192 Кбит/сек, 2 канала, 48,0 КГц, 16 бит)
Язык                                     : English
ServiceKind/String                       : Complete Main
Default                                  : Нет
Forced                                   : Нет

Текст
Идентификатор                            : 9
Формат                                   : UTF-8
Идентификатор кодека                     : S_TEXT/UTF8
Идентификатор кодека/Информация          : UTF-8 Plain Text
Заголовок                                : Английские
Язык                                     : English
Default                                  : Нет
Forced                                   : Нет

Меню
00:00:00.000                             : en:00:00:00.000
00:09:01.499                             : en:00:09:01.499
00:16:25.067                             : en:00:16:25.067
00:24:41.814                             : en:00:24:41.814
00:32:18.770                             : en:00:32:18.770
00:41:32.699                             : en:00:41:32.699
00:49:59.663                             : en:00:49:59.663
00:58:55.407                             : en:00:58:55.407
01:05:44.732                             : en:01:05:44.732
01:13:33.701                             : en:01:13:33.701
01:20:47.509                             : en:01:20:47.509
01:29:52.679                             : en:01:29:52.679

Скриншоты:




Время раздачи: 24/7 до первых 10 скачавших, потом ухожу с раздачи
Не забывайте говорить Спасибо. Не уходите с раздачи!   
Торрент: Зарегистрирован [16 сен 2018, 19:10] Для скачивания .torrent
необходима регистрация
Или скачать с помощью
MediaGet
Статус:
Проверен
 
.torrent скачан: 0 раз
Хэш: 0e9852bb0eb53ba1c74cf67d17e40cdf3967e052
Размер: 19.96 ГБ (21 435 961 127 байт)
   Стать Автором раздачи
   
Цитата
  • Похожие торренты
    Ответы
    Просмотры
    Последнее сообщение

Вернуться в Зарубежное кино (HD Video)

Кто сейчас на конференции

Сейчас эту тему просматривают: нет зарегистрированных пользователей и гости: 1