VA - Afrotronic 2 (2002) [FLAC|Lossless|tracks + .cue] <Tribal, Future Jazz, Broken Beat>

 Статистика раздачи 
Размер: 891.95 МБ   |  Зарегистрирован: 03 сен 2018, 11:24   |   .torrent скачан: 0 раз
Сидеров: 0  [ 0 байт/сек ]     Личеров: 0  [ 0 байт/сек ]  
  
Аватара пользователя
 
Раздал: 2.99 ТБ
Скачал: 11.01 ГБ
Ратио: 277.793
Сообщения: 183514
Стаж: 1 год 6 месяцев 3 дня

VA - Afrotronic 2 (2002)

Жанр: Tribal, Future Jazz, Broken Beat
Издание: Audiopharm - 092-71212
Продолжительность: 01:05:21 + 01:07:46

Кодек: FLAC
Битрейт: Lossless
Тип рипа: tracks + .cue

Треклист CD1:
01. Naked Soul - Voices of Itun (feat. Glenn Underground) (05:31)
02. Da Lata - Pra Manha (New Sector Movements instrumental mix) (07:47)
03. Gigi - Guramayle (04:26)
04. New Sector Movements - Voonga Vonge (06:51)
05. Minus 8 - Snowblind (Les Gammas remix) (06:25)
06. Mory Kanté - Dimini (Matty’s II Deep Allstar mix) (08:54)
07. UFP - Zeularaé (Kerri’s Blissful Rub) (06:30)
08. Aaron Bingle - Ghananight Moonlight (05:35)
09. Ursula Rucker - Spring (05:59)
10. Daddy Ous - Hard Like a Rock (07:18)
Код: Выделить всё
Exact Audio Copy V1.3 from 2. September 2016

EAC extraction logfile from 27. September 2017, 15:21

Various Artists / Afrotronic 2

Used drive  : PIONEER BD-RW   BDR-209D   Adapter: 1  ID: 2

Read mode               : Secure
Utilize accurate stream : Yes
Defeat audio cache      : Yes
Make use of C2 pointers : No

Read offset correction                      : 667
Overread into Lead-In and Lead-Out          : No
Fill up missing offset samples with silence : Yes
Delete leading and trailing silent blocks   : No
Null samples used in CRC calculations       : Yes
Used interface                              : Native Win32 interface for Win NT & 2000
Gap handling                                : Appended to previous track

Used output format              : User Defined Encoder
Selected bitrate                : 768 kBit/s
Quality                         : High
Add ID3 tag                     : No
Command line compressor         : C:\Program Files\Exact Audio Copy\FLAC\FLAC.EXE
Additional command line options : -6 -V -T "ARTIST=%artist%" -T "TITLE=%title%" -T "ALBUM=%albumtitle%" -T "DATE=%year%" -T "TRACKNUMBER=%tracknr%" -T "GENRE=%genre%" -T "COMMENT=%comment%" -T "BAND=%albuminterpret%" -T "ALBUMARTIST=%albuminterpret%" -T "COMPOSER=%composer%" %haslyrics%--tag-from-file=LYRICS="%lyricsfile%"%haslyrics% -T "DISCNUMBER=%cdnumber%" -T "TOTALDISCS=%totalcds%" -T "TOTALTRACKS=%numtracks%" %hascover%--picture="%coverfile%"%hascover% %source% -o %dest%

TOC of the extracted CD

     Track |   Start  |  Length  | Start sector | End sector
    ---------------------------------------------------------
        1  |  0:00.00 |  5:31.71 |         0    |    24895
        2  |  5:31.71 |  7:47.74 |     24896    |    59994
        3  | 13:19.70 |  4:26.41 |     59995    |    79985
        4  | 17:46.36 |  6:51.19 |     79986    |   110829
        5  | 24:37.55 |  6:25.33 |    110830    |   139737
        6  | 31:03.13 |  8:54.19 |    139738    |   179806
        7  | 39:57.32 |  6:30.67 |    179807    |   209123
        8  | 46:28.24 |  5:35.37 |    209124    |   234285
        9  | 52:03.61 |  5:59.24 |    234286    |   261234
       10  | 58:03.10 |  7:18.61 |    261235    |   294145

Track  1

     Filename G:\Muzak - FLAC\VA - Afrotronic 2 (2002)\01 - Naked Soul - Voices of Itun (feat. Glenn Underground).wav

     Pre-gap length  0:00:02.00

     Peak level 96.5 %
     Extraction speed 5.2 X
     Track quality 100.0 %
     Test CRC 81331BDD
     Copy CRC 81331BDD
     Accurately ripped (confidence 4)  [A46927D3]  (AR v2)
     Copy OK

Track  2

     Filename G:\Muzak - FLAC\VA - Afrotronic 2 (2002)\02 - Da Lata - Pra Manha (New Sector Movements instrumental mix).wav

     Pre-gap length  0:00:01.98

     Peak level 99.9 %
     Extraction speed 5.9 X
     Track quality 100.0 %
     Test CRC 7F3DB2D0
     Copy CRC 7F3DB2D0
     Accurately ripped (confidence 4)  [0A3D9409]  (AR v2)
     Copy OK

Track  3

     Filename G:\Muzak - FLAC\VA - Afrotronic 2 (2002)\03 - Gigi - Guramayle.wav

     Pre-gap length  0:00:01.97

     Peak level 81.2 %
     Extraction speed 5.6 X
     Track quality 99.9 %
     Test CRC 7C4BF7B6
     Copy CRC 7C4BF7B6
     Accurately ripped (confidence 4)  [C52BA2B9]  (AR v2)
     Copy OK

Track  4

     Filename G:\Muzak - FLAC\VA - Afrotronic 2 (2002)\04 - New Sector Movements - Voonga Vonge.wav

     Pre-gap length  0:00:01.98

     Peak level 99.9 %
     Extraction speed 6.9 X
     Track quality 100.0 %
     Test CRC AFEC691E
     Copy CRC AFEC691E
     Accurately ripped (confidence 4)  [D6F09371]  (AR v2)
     Copy OK

Track  5

     Filename G:\Muzak - FLAC\VA - Afrotronic 2 (2002)\05 - Minus 8 - Snowblind (Les Gammas remix).wav

     Pre-gap length  0:00:01.98

     Peak level 99.9 %
     Extraction speed 6.8 X
     Track quality 99.9 %
     Test CRC 6293BF83
     Copy CRC 6293BF83
     Accurately ripped (confidence 4)  [5D3705B6]  (AR v2)
     Copy OK

Track  6

     Filename G:\Muzak - FLAC\VA - Afrotronic 2 (2002)\06 - Mory Kanté - Dimini (Matty’s II Deep Allstar mix).wav

     Pre-gap length  0:00:01.97

     Peak level 99.9 %
     Extraction speed 8.0 X
     Track quality 100.0 %
     Test CRC 2D370680
     Copy CRC 2D370680
     Accurately ripped (confidence 4)  [7909E34D]  (AR v2)
     Copy OK

Track  7

     Filename G:\Muzak - FLAC\VA - Afrotronic 2 (2002)\07 - UFP - Zeularaé (Kerri’s Blissful Rub).wav

     Pre-gap length  0:00:01.98

     Peak level 99.9 %
     Extraction speed 8.2 X
     Track quality 100.0 %
     Test CRC 4149966C
     Copy CRC 4149966C
     Accurately ripped (confidence 4)  [CC264C37]  (AR v2)
     Copy OK

Track  8

     Filename G:\Muzak - FLAC\VA - Afrotronic 2 (2002)\08 - Aaron Bingle - Ghananight Moonlight.wav

     Pre-gap length  0:00:01.98

     Peak level 98.8 %
     Extraction speed 8.3 X
     Track quality 100.0 %
     Test CRC B49E2686
     Copy CRC B49E2686
     Accurately ripped (confidence 4)  [C8E444DE]  (AR v2)
     Copy OK

Track  9

     Filename G:\Muzak - FLAC\VA - Afrotronic 2 (2002)\09 - Ursula Rucker - Spring.wav

     Pre-gap length  0:00:01.96

     Peak level 97.6 %
     Extraction speed 8.7 X
     Track quality 100.0 %
     Test CRC E1EA1538
     Copy CRC E1EA1538
     Accurately ripped (confidence 4)  [B21EB5E5]  (AR v2)
     Copy OK

Track 10

     Filename G:\Muzak - FLAC\VA - Afrotronic 2 (2002)\10 - Daddy Ous - Hard Like a Rock.wav

     Pre-gap length  0:00:01.94

     Peak level 99.9 %
     Extraction speed 9.2 X
     Track quality 100.0 %
     Test CRC 7CF20974
     Copy CRC 7CF20974
     Accurately ripped (confidence 4)  [E95DB2F1]  (AR v2)
     Copy OK

All tracks accurately ripped

No errors occurred

End of status report

---- CUETools DB Plugin V2.1.6

[CTDB TOCID: A4q0YCdscI1eXrfQsuPHZTASEPo-] found
Submit result: A4q0YCdscI1eXrfQsuPHZTASEPo- has been confirmed
Track | CTDB Status
  1   | (4/4) Accurately ripped
  2   | (4/4) Accurately ripped
  3   | (4/4) Accurately ripped
  4   | (4/4) Accurately ripped
  5   | (4/4) Accurately ripped
  6   | (4/4) Accurately ripped
  7   | (4/4) Accurately ripped
  8   | (4/4) Accurately ripped
  9   | (4/4) Accurately ripped
 10   | (4/4) Accurately ripped

==== Log checksum 54A4932CFE3B0AD1B1B30A7A86452FF9CACF9312EF081344B3F18C887A33A61A ====
Код: Выделить всё
REM GENRE "Electronic,  Tribal, Future Jazz, Broken Beat"
REM DATE 2002
REM DISCID 940F510A
REM COMMENT "ExactAudioCopy v1.3"
PERFORMER "Various Artists"
TITLE "Afrotronic 2"
REM COMPOSER ""
FILE "01 - Naked Soul - Voices of Itun (feat. Glenn Underground).wav" WAVE
  TRACK 01 AUDIO
    TITLE "Voices of Itun (feat. Glenn Underground)"
    PERFORMER "Naked Soul"
    REM COMPOSER ""
    INDEX 01 00:00:00
  TRACK 02 AUDIO
    TITLE "Pra Manha (New Sector Movements instrumental mix)"
    PERFORMER "Da Lata"
    REM COMPOSER ""
    INDEX 00 05:29:72
FILE "02 - Da Lata - Pra Manha (New Sector Movements instrumental mix).wav" WAVE
    INDEX 01 00:00:00
  TRACK 03 AUDIO
    TITLE "Guramayle"
    PERFORMER "Gigi"
    REM COMPOSER ""
    INDEX 00 07:46:01
FILE "03 - Gigi - Guramayle.wav" WAVE
    INDEX 01 00:00:00
  TRACK 04 AUDIO
    TITLE "Voonga Vonge"
    PERFORMER "New Sector Movements"
    REM COMPOSER ""
    INDEX 00 04:24:42
FILE "04 - New Sector Movements - Voonga Vonge.wav" WAVE
    INDEX 01 00:00:00
  TRACK 05 AUDIO
    TITLE "Snowblind (Les Gammas remix)"
    PERFORMER "Minus 8"
    REM COMPOSER ""
    INDEX 00 06:49:20
FILE "05 - Minus 8 - Snowblind (Les Gammas remix).wav" WAVE
    INDEX 01 00:00:00
  TRACK 06 AUDIO
    TITLE "Dimini (Matty’s II Deep Allstar mix)"
    PERFORMER "Mory Kantй"
    REM COMPOSER ""
    INDEX 00 06:23:35
FILE "06 - Mory Kantй - Dimini (Matty’s II Deep Allstar mix).wav" WAVE
    INDEX 01 00:00:00
  TRACK 07 AUDIO
    TITLE "Zeularaй (Kerri’s Blissful Rub)"
    PERFORMER "UFP"
    REM COMPOSER ""
    INDEX 00 08:52:20
FILE "07 - UFP - Zeularaй (Kerri’s Blissful Rub).wav" WAVE
    INDEX 01 00:00:00
  TRACK 08 AUDIO
    TITLE "Ghananight Moonlight"
    PERFORMER "Aaron Bingle"
    REM COMPOSER ""
    INDEX 00 06:28:68
FILE "08 - Aaron Bingle - Ghananight Moonlight.wav" WAVE
    INDEX 01 00:00:00
  TRACK 09 AUDIO
    TITLE "Spring"
    PERFORMER "Ursula Rucker"
    REM COMPOSER ""
    INDEX 00 05:33:40
FILE "09 - Ursula Rucker - Spring.wav" WAVE
    INDEX 01 00:00:00
  TRACK 10 AUDIO
    TITLE "Hard Like a Rock"
    PERFORMER "Daddy Ous"
    REM COMPOSER ""
    INDEX 00 05:57:28
FILE "10 - Daddy Ous - Hard Like a Rock.wav" WAVE
    INDEX 01 00:00:00
Код: Выделить всё
-----------------------

DON'T MODIFY THIS FILE

-----------------------

PERFORMER: auCDtect Task Manager, ver. 1.6.0 RC1 build 1.6.0.1
Copyright (c) 2008-2010 y-soft. All rights reserved
[url=http://y-soft.org]http://y-soft.org[/url]

ANALYZER: auCDtect: CD records authenticity detector, version 0.8.2
Copyright (c) 2004 Oleg Berngardt. All rights reserved.
Copyright (c) 2004 Alexander Djourik. All rights reserved.

FILE: 04 - New Sector Movements - Voonga Vonge.flac
  Size: 46145451 Hash: 97127B50AABBA00A2778152794095EC2 Accuracy: -m0
  Conclusion: CDDA 100%
  Signature: D5725E6FE8572EF9E0187C21E4BF40955E6C3217
FILE: 03 - Gigi - Guramayle.flac
  Size: 29614676 Hash: 2F65253A5C4E21BFD2BBBDBE3ADEE3B2 Accuracy: -m0
  Conclusion: CDDA 100%
  Signature: FE1F4823FFBE6433DA5B575E52B83A98BF0C044F
FILE: 02 - Da Lata - Pra Manha (New Sector Movements instrumental mix).flac
  Size: 50934712 Hash: 1A365D73963563DC53405DEEB2539592 Accuracy: -m0
  Conclusion: CDDA 100%
  Signature: 7C80525051D60B88C55C2DE5732BA4BFCE56FA90
FILE: 01 - Naked Soul - Voices of Itun (feat. Glenn Underground).flac
  Size: 43747451 Hash: 5CF53C17B1463BF231F9BF88692BF251 Accuracy: -m0
  Conclusion: CDDA 100%
  Signature: D5D353EEB650623B1A252597DA8554B5E03F2505
FILE: 10 - Daddy Ous - Hard Like a Rock.flac
  Size: 46852445 Hash: E7D8B5E6967EB1674EC55EA295B86C2F Accuracy: -m0
  Conclusion: CDDA 100%
  Signature: 7F124F2FCEF0F5AA6BD06D2DE3207E1950BFE1B4
FILE: 09 - Ursula Rucker - Spring.flac
  Size: 42681034 Hash: 2C320F6B3FB4B0141A0E8CB9C3567784 Accuracy: -m0
  Conclusion: CDDA 100%
  Signature: 2DD4F11772DA62D3901AC32981058989C8E6726E
FILE: 08 - Aaron Bingle - Ghananight Moonlight.flac
  Size: 39405303 Hash: 9D223F4E238F0E4327B0384A1F1FA6A8 Accuracy: -m0
  Conclusion: CDDA 100%
  Signature: 055DBDF083490F3B87821EBE15BA95212C36E868
FILE: 07 - UFP - Zeularaé (Kerri’s Blissful Rub).flac
  Size: 49185004 Hash: D0172953F35B62C28E04AAF6BA60B149 Accuracy: -m0
  Conclusion: CDDA 100%
  Signature: 4BADA52D4F9C5928D89E90AB5D98CB018ECC6E05
FILE: 06 - Mory Kanté - Dimini (Matty’s II Deep Allstar mix).flac
  Size: 64697576 Hash: 63D4233316DFE5403AEE05839C2EC84C Accuracy: -m0
  Conclusion: CDDA 100%
  Signature: BAE37C786C53B6AFDB8B2D3AE5C78B9B06A927CC
FILE: 05 - Minus 8 - Snowblind (Les Gammas remix).flac
  Size: 49588769 Hash: F9F587B47E0557714245CB817DC1F61E Accuracy: -m0
  Conclusion: CDDA 99%
  Signature: 0D703D67BEE69C4D5369904DB8FEF1D85F72C2D7
Треклиcт:
01. Janice hosted by Brown Smith & Grey - Voodoo Bliss (05:32)
02. Afrix - Zakamucyo (feat. Dorothee Ningabire) (05:04)
03. Mood & Cue vs. Joe Montana - The Secret (Stonegroove’s Sugarhill Spiritual mix) (03:40)
04. Jaymz Nylon - High and Higher (05:59)
05. Los Chicharrons - Move Out of the Way (05:14)
06. Nuspirit Helsinki - Makoomba (09:51)
07. Dennis Ferrer - Funu (Hi-Life mix) (07:49)
08. Afronaught - Transcend Me (07:47)
09. Sound Surgeons - Higha Spirit (feat. Kazeeba) (Spiritual Afro mix) (05:17)
10. Beatless - Life Mirrors (05:58)
11. Marko Bokuhn - Liberia (05:31)
Код: Выделить всё
Exact Audio Copy V1.3 from 2. September 2016

EAC extraction logfile from 27. September 2017, 16:10

Various Artists / Afrotronic 2

Used drive  : PIONEER BD-RW   BDR-209D   Adapter: 1  ID: 2

Read mode               : Secure
Utilize accurate stream : Yes
Defeat audio cache      : Yes
Make use of C2 pointers : No

Read offset correction                      : 667
Overread into Lead-In and Lead-Out          : No
Fill up missing offset samples with silence : Yes
Delete leading and trailing silent blocks   : No
Null samples used in CRC calculations       : Yes
Used interface                              : Native Win32 interface for Win NT & 2000
Gap handling                                : Appended to previous track

Used output format              : User Defined Encoder
Selected bitrate                : 768 kBit/s
Quality                         : High
Add ID3 tag                     : No
Command line compressor         : C:\Program Files\Exact Audio Copy\FLAC\FLAC.EXE
Additional command line options : -6 -V -T "ARTIST=%artist%" -T "TITLE=%title%" -T "ALBUM=%albumtitle%" -T "DATE=%year%" -T "TRACKNUMBER=%tracknr%" -T "GENRE=%genre%" -T "COMMENT=%comment%" -T "BAND=%albuminterpret%" -T "ALBUMARTIST=%albuminterpret%" -T "COMPOSER=%composer%" %haslyrics%--tag-from-file=LYRICS="%lyricsfile%"%haslyrics% -T "DISCNUMBER=%cdnumber%" -T "TOTALDISCS=%totalcds%" -T "TOTALTRACKS=%numtracks%" %hascover%--picture="%coverfile%"%hascover% %source% -o %dest%

TOC of the extracted CD

     Track |   Start  |  Length  | Start sector | End sector
    ---------------------------------------------------------
        1  |  0:00.00 |  5:32.28 |         0    |    24927
        2  |  5:32.28 |  5:04.23 |     24928    |    47750
        3  | 10:36.51 |  3:40.32 |     47751    |    64282
        4  | 14:17.08 |  5:59.06 |     64283    |    91213
        5  | 20:16.14 |  5:14.16 |     91214    |   114779
        6  | 25:30.30 |  9:51.26 |    114780    |   159130
        7  | 35:21.56 |  7:49.45 |    159131    |   194350
        8  | 43:11.26 |  7:47.59 |    194351    |   229434
        9  | 50:59.10 |  5:17.03 |    229435    |   253212
       10  | 56:16.13 |  5:58.27 |    253213    |   280089
       11  | 62:14.40 |  5:31.41 |    280090    |   304955

Track  1

     Filename G:\Muzak - FLAC\VA - Afrotronic 2 (2002)\01 - Janice hosted by Brown Smith & Grey - Voodoo Bliss.wav

     Pre-gap length  0:00:02.00

     Peak level 99.9 %
     Extraction speed 5.1 X
     Track quality 100.0 %
     Test CRC D68D4891
     Copy CRC D68D4891
     Accurately ripped (confidence 4)  [1B6A0979]  (AR v2)
     Copy OK

Track  2

     Filename G:\Muzak - FLAC\VA - Afrotronic 2 (2002)\02 - Afrix - Zakamucyo (feat. Dorothee Ningabire).wav

     Pre-gap length  0:00:02.00

     Peak level 98.9 %
     Extraction speed 5.7 X
     Track quality 100.0 %
     Test CRC CD2B81CB
     Copy CRC CD2B81CB
     Accurately ripped (confidence 4)  [C2EC7B37]  (AR v2)
     Copy OK

Track  3

     Filename G:\Muzak - FLAC\VA - Afrotronic 2 (2002)\03 - Mood & Cue vs. Joe Montana - The Secret (Stonegroove’s Sugarhill Spiritual mix).wav

     Pre-gap length  0:00:01.98

     Peak level 99.9 %
     Extraction speed 4.7 X
     Track quality 99.9 %
     Test CRC CEB0EFB0
     Copy CRC CEB0EFB0
     Accurately ripped (confidence 4)  [CAC0251B]  (AR v2)
     Copy OK

Track  4

     Filename G:\Muzak - FLAC\VA - Afrotronic 2 (2002)\04 - Jaymz Nylon - High and Higher.wav

     Pre-gap length  0:00:02.00

     Peak level 99.9 %
     Extraction speed 6.6 X
     Track quality 100.0 %
     Test CRC DFAB92C5
     Copy CRC DFAB92C5
     Accurately ripped (confidence 4)  [74177EDF]  (AR v2)
     Copy OK

Track  5

     Filename G:\Muzak - FLAC\VA - Afrotronic 2 (2002)\05 - Los Chicharrons - Move Out of the Way.wav

     Pre-gap length  0:00:02.00

     Peak level 89.5 %
     Extraction speed 6.9 X
     Track quality 100.0 %
     Test CRC DE1C8C9D
     Copy CRC DE1C8C9D
     Accurately ripped (confidence 4)  [A39474AC]  (AR v2)
     Copy OK

Track  6

     Filename G:\Muzak - FLAC\VA - Afrotronic 2 (2002)\06 - Nuspirit Helsinki - Makoomba.wav

     Pre-gap length  0:00:02.00

     Peak level 99.9 %
     Extraction speed 7.8 X
     Track quality 100.0 %
     Test CRC EF7A478A
     Copy CRC EF7A478A
     Accurately ripped (confidence 4)  [FB2E2957]  (AR v2)
     Copy OK

Track  7

     Filename G:\Muzak - FLAC\VA - Afrotronic 2 (2002)\07 - Dennis Ferrer - Funu (Hi-Life mix).wav

     Pre-gap length  0:00:02.00

     Peak level 99.9 %
     Extraction speed 8.1 X
     Track quality 100.0 %
     Test CRC 85E808AA
     Copy CRC 85E808AA
     Accurately ripped (confidence 4)  [51C3DFBD]  (AR v2)
     Copy OK

Track  8

     Filename G:\Muzak - FLAC\VA - Afrotronic 2 (2002)\08 - Afronaught - Transcend Me.wav

     Pre-gap length  0:00:02.00

     Peak level 99.9 %
     Extraction speed 8.0 X
     Track quality 99.9 %
     Test CRC 4A324407
     Copy CRC 4A324407
     Accurately ripped (confidence 4)  [B911D1F1]  (AR v2)
     Copy OK

Track  9

     Filename G:\Muzak - FLAC\VA - Afrotronic 2 (2002)\09 - Sound Surgeons - Higha Spirit (feat. Kazeeba) (Spiritual Afro mix).wav

     Pre-gap length  0:00:02.00

     Peak level 89.1 %
     Extraction speed 7.8 X
     Track quality 99.9 %
     Test CRC 0B256165
     Copy CRC 0B256165
     Accurately ripped (confidence 4)  [21DADDD9]  (AR v2)
     Copy OK

Track 10

     Filename G:\Muzak - FLAC\VA - Afrotronic 2 (2002)\10 - Beatless - Life Mirrors.wav

     Pre-gap length  0:00:02.00

     Peak level 86.5 %
     Extraction speed 9.1 X
     Track quality 100.0 %
     Test CRC 9D82C1BD
     Copy CRC 9D82C1BD
     Accurately ripped (confidence 4)  [4C8E4DC8]  (AR v2)
     Copy OK

Track 11

     Filename G:\Muzak - FLAC\VA - Afrotronic 2 (2002)\11 - Marko Bokuhn - Liberia.wav

     Pre-gap length  0:00:01.98

     Peak level 97.7 %
     Extraction speed 9.1 X
     Track quality 100.0 %
     Test CRC 1A3EE366
     Copy CRC 1A3EE366
     Accurately ripped (confidence 4)  [A2AA9EB0]  (AR v2)
     Copy OK

All tracks accurately ripped

No errors occurred

End of status report

---- CUETools DB Plugin V2.1.6

[CTDB TOCID: 8d9M25RQA_VfRQclxkjp4tz1.6I-] found
Submit result: 8d9M25RQA_VfRQclxkjp4tz1.6I- has been confirmed
Track | CTDB Status
  1   | (4/4) Accurately ripped
  2   | (4/4) Accurately ripped
  3   | (4/4) Accurately ripped
  4   | (4/4) Accurately ripped
  5   | (4/4) Accurately ripped
  6   | (4/4) Accurately ripped
  7   | (4/4) Accurately ripped
  8   | (4/4) Accurately ripped
  9   | (4/4) Accurately ripped
 10   | (4/4) Accurately ripped
 11   | (4/4) Accurately ripped

==== Log checksum E7D871295B56A7E28966DAB74E0692DA2B07183856470A15F66ACE8D1AB6904B ====

Код: Выделить всё
-----------------------

DON'T MODIFY THIS FILE

-----------------------

PERFORMER: auCDtect Task Manager, ver. 1.6.0 RC1 build 1.6.0.1
Copyright (c) 2008-2010 y-soft. All rights reserved
[url=http://y-soft.org]http://y-soft.org[/url]

ANALYZER: auCDtect: CD records authenticity detector, version 0.8.2
Copyright (c) 2004 Oleg Berngardt. All rights reserved.
Copyright (c) 2004 Alexander Djourik. All rights reserved.

FILE: 04 - Jaymz Nylon - High and Higher.flac
  Size: 42761888 Hash: 9FDCA6A127FEA08204AD7DC222967F48 Accuracy: -m0
  Conclusion: CDDA 100%
  Signature: 13D2C3B2BE1BF8202C9752C1678567093A9ADEAA
FILE: 03 - Mood & Cue vs. Joe Montana - The Secret (Stonegroove’s Sugarhill Spiritual mix).flac
  Size: 23077038 Hash: EDD92A7097B3B099B8A14C201929671F Accuracy: -m0
  Conclusion: CDDA 100%
  Signature: 9F1084FBA4CA088CADB218B6FB99EB6A21AC28EC
FILE: 02 - Afrix - Zakamucyo (feat. Dorothee Ningabire).flac
  Size: 36750968 Hash: C1CA38394D41DBE7E6182950D1BF373A Accuracy: -m0
  Conclusion: CDDA 100%
  Signature: EC33C0E94C3D00D20EB7505002EB8DA287F776B3
FILE: 01 - Janice hosted by Brown Smith & Grey - Voodoo Bliss.flac
  Size: 38748734 Hash: 921343FBDB884DA24245636591A5600C Accuracy: -m0
  Conclusion: CDDA 100%
  Signature: 0F262BBCE51C603C5CB8624D8F8C789B136DEC47
FILE: 11 - Marko Bokuhn - Liberia.flac
  Size: 37559720 Hash: 23EC0AC9593DBDAC78AD2A2FA9281B3D Accuracy: -m0
  Conclusion: CDDA 100%
  Signature: 49B2FDE00DDE015FFF054C2E66CC1D1C7377693C
FILE: 10 - Beatless - Life Mirrors.flac
  Size: 37777368 Hash: E1F00934A2FFC060BD4E5EFC2179B69C Accuracy: -m0
  Conclusion: CDDA 100%
  Signature: 680713503FC811BE5D48674A9F345B3BA9027FAC
FILE: 09 - Sound Surgeons - Higha Spirit (feat. Kazeeba) (Spiritual Afro mix).flac
  Size: 37640699 Hash: 31793E9DD0B19E4DB09A371AE4553448 Accuracy: -m0
  Conclusion: CDDA 100%
  Signature: 9D8EA21B3E89991B647B6DCFE09B08DEE943BE5A
FILE: 08 - Afronaught - Transcend Me.flac
  Size: 55092013 Hash: 63E88EFD2D194446F1840CD2B63D8A78 Accuracy: -m0
  Conclusion: CDDA 100%
  Signature: 5572D51B2889C408D04D3E793B374938CDAC24AB
FILE: 07 - Dennis Ferrer - Funu (Hi-Life mix).flac
  Size: 52426176 Hash: 7EF3A3D0697F0EECDCE33357636DA97B Accuracy: -m0
  Conclusion: CDDA 100%
  Signature: B760ED9FA66C91327FE672BB3D0BF151FAC242AF
FILE: 06 - Nuspirit Helsinki - Makoomba.flac
  Size: 63548453 Hash: AED6A7F2C4E367230BA905E423B3807E Accuracy: -m0
  Conclusion: CDDA 100%
  Signature: 49F15AB705264447C1BFE846D0A95333879577D7
FILE: 05 - Los Chicharrons - Move Out of the Way.flac
  Size: 37998630 Hash: D996BE0899FFF6EE7DCFD343F1757659 Accuracy: -m0
  Conclusion: CDDA 99%
  Signature: ABACFA3AE2537DDBA908F2781EA53CABDB0B63FD

Код: Выделить всё
REM GENRE "Electronic, Tribal, Future Jazz, Broken Beat"
REM DATE 2002
REM DISCID 970FE20B
REM COMMENT "ExactAudioCopy v1.3"
PERFORMER "Various Artists"
TITLE "Afrotronic 2"
REM COMPOSER ""
FILE "01 - Janice hosted by Brown Smith & Grey - Voodoo Bliss.wav" WAVE
  TRACK 01 AUDIO
    TITLE "Voodoo Bliss"
    PERFORMER "Janice hosted by Brown Smith & Grey"
    REM COMPOSER ""
    INDEX 01 00:00:00
  TRACK 02 AUDIO
    TITLE "Zakamucyo (feat. Dorothee Ningabire)"
    PERFORMER "Afrix"
    REM COMPOSER ""
    INDEX 00 05:30:28
FILE "02 - Afrix - Zakamucyo (feat. Dorothee Ningabire).wav" WAVE
    INDEX 01 00:00:00
  TRACK 03 AUDIO
    TITLE "The Secret (Stonegroove’s Sugarhill Spiritual mix)"
    PERFORMER "Mood & Cue vs. Joe Montana"
    REM COMPOSER ""
    INDEX 00 05:02:24
FILE "03 - Mood & Cue vs. Joe Montana - The Secret (Stonegroove’s Sugarhill Spiritual mix).wav" WAVE
    INDEX 01 00:00:00
  TRACK 04 AUDIO
    TITLE "High and Higher"
    PERFORMER "Jaymz Nylon"
    REM COMPOSER ""
    INDEX 00 03:38:32
FILE "04 - Jaymz Nylon - High and Higher.wav" WAVE
    INDEX 01 00:00:00
  TRACK 05 AUDIO
    TITLE "Move Out of the Way"
    PERFORMER "Los Chicharrons"
    REM COMPOSER ""
    INDEX 00 05:57:06
FILE "05 - Los Chicharrons - Move Out of the Way.wav" WAVE
    INDEX 01 00:00:00
  TRACK 06 AUDIO
    TITLE "Makoomba"
    PERFORMER "Nuspirit Helsinki"
    REM COMPOSER ""
    INDEX 00 05:12:16
FILE "06 - Nuspirit Helsinki - Makoomba.wav" WAVE
    INDEX 01 00:00:00
  TRACK 07 AUDIO
    TITLE "Funu (Hi-Life mix)"
    PERFORMER "Dennis Ferrer"
    REM COMPOSER ""
    INDEX 00 09:49:26
FILE "07 - Dennis Ferrer - Funu (Hi-Life mix).wav" WAVE
    INDEX 01 00:00:00
  TRACK 08 AUDIO
    TITLE "Transcend Me"
    PERFORMER "Afronaught"
    REM COMPOSER ""
    INDEX 00 07:47:45
FILE "08 - Afronaught - Transcend Me.wav" WAVE
    INDEX 01 00:00:00
  TRACK 09 AUDIO
    TITLE "Higha Spirit (feat. Kazeeba) (Spiritual Afro mix)"
    PERFORMER "Sound Surgeons"
    REM COMPOSER ""
    INDEX 00 07:45:59
FILE "09 - Sound Surgeons - Higha Spirit (feat. Kazeeba) (Spiritual Afro mix).wav" WAVE
    INDEX 01 00:00:00
  TRACK 10 AUDIO
    TITLE "Life Mirrors"
    PERFORMER "Beatless"
    REM COMPOSER ""
    INDEX 00 05:15:03
FILE "10 - Beatless - Life Mirrors.wav" WAVE
    INDEX 01 00:00:00
  TRACK 11 AUDIO
    TITLE "Liberia"
    PERFORMER "Marko Bokuhn"
    REM COMPOSER ""
    INDEX 00 05:56:28
FILE "11 - Marko Bokuhn - Liberia.wav" WAVE
    INDEX 01 00:00:00


#7
Код: Выделить всё
[b]Поглощение/вытеснение [/b]
[b]Только с согласия релизера[/b]
[b][u][i]Pashketan[/b][/i][/u]
Не забывайте говорить Спасибо. Не уходите с раздачи!   
Торрент: Зарегистрирован [03 сен 2018, 11:24] Для скачивания .torrent
необходима регистрация
Или скачать с помощью
MediaGet
Статус:
Проверен
 
.torrent скачан: 0 раз
Размер: 891.95 МБ (935 278 020 байт)
   Стать Автором раздачи
   
Цитата
  • Похожие торренты
    Ответы
    Просмотры
    Последнее сообщение

Вернуться в Electronic

Кто сейчас на конференции

Сейчас эту тему просматривают: нет зарегистрированных пользователей и гости: 1