Aphex Twin - Collapse EP (2018) Warp Records [FLAC|Lossless|tracks|Vinyl] <IDM, Electro, Abstract, Glitch>

 Статистика раздачи 
Размер: 232.37 МБ   |  Зарегистрирован: 01 сен 2018, 20:08   |   .torrent скачан: 0 раз
Сидеров: 0  [ 0 байт/сек ]     Личеров: 0  [ 0 байт/сек ]  
  
Аватара пользователя
 
Раздал: 3.33 ТБ
Скачал: 63.48 ГБ
Ратио: 53.655
Сообщения: 196795
Стаж: 1 год 7 месяцев 22 дня

Aphex Twin
Collapse EP
Жанр: IDM, Electro, Abstract, Glitch
Издание: Warp Records - WAP423
Продолжительность: 00:23:36

Кодек: FLAC
Битрейт: Lossless|24Bit
Тип рипа: tracks

Треклист:


01. T69 collapse (05:20)
02. 1st 44 (06:00)
03. MT1 t29r2 (05:58)
04. abundance10edit[2 R8's, FZ20m & a 909] (06:18)
Код: Выделить всё
foobar2000 1.1 / Dynamic Range Meter 1.1.1
log date: 2018-09-01 20:03:11

--------------------------------------------------------------------------------
Analyzed: Aphex Twin / Collapse EP
--------------------------------------------------------------------------------

DR         Peak         RMS     Duration Track
--------------------------------------------------------------------------------
DR9       -4.13 dB   -15.18 dB      5:20 ?-T69 collapse
DR9       -4.40 dB   -16.08 dB      6:00 ?-1st 44
DR9       -4.35 dB   -16.01 dB      5:58 ?-MT1 t29r2
DR10      -4.19 dB   -16.95 dB      6:18 ?-abundance10edit[2 R8's, FZ20m & a 909]
--------------------------------------------------------------------------------

Number of tracks:  4
Official DR value: DR9

Samplerate:        44100 Hz
Channels:          2
Bits per sample:   24
Bitrate:           1288 kbps
Codec:             FLAC
================================================================================

Mint
Audio-Technica AT-LP120-USB Turntable
Audio-Technica AT95E Cartrige
Audacity
Время раздачи: 12/7 (до появления первых 3-5 скачавших)
Не забывайте говорить Спасибо. Не уходите с раздачи!   
Торрент: Зарегистрирован [01 сен 2018, 20:08] Для скачивания .torrent
необходима регистрация
Или скачать с помощью
MediaGet
Статус:
Проверен
 
.torrent скачан: 0 раз
Хэш: 963391a2fa150bffac9666f2e0d9afc001c4e80f
Размер: 232.37 МБ (243 652 937 байт)
   Стать Автором раздачи
   
Цитата
  • Похожие торренты
    Ответы
    Просмотры
    Последнее сообщение

Вернуться в Electronic

Кто сейчас на конференции

Сейчас эту тему просматривают: нет зарегистрированных пользователей и гости: 1