James Last - Classics From Russia (1996) [FLAC|Lossless|tracks + .cue] <Instrumental, Easy Listening>

 Статистика раздачи 
Размер: 377.54 МБ   |  Зарегистрирован: 20 янв 2018, 16:09   |   .torrent скачан: 2 раз
Сидеров: 1  [ 0 байт/сек ]     Личеров: 2  [ 0 байт/сек ]  
  
Аватара пользователя
Я на сайте
 
Раздал: 1.29 ТБ
Скачал: 9.74 ГБ
Ратио: 136.127
Сообщения: 136659
Стаж: 2 года 2 месяца 21 день

James Last - Classics From Russia (1996)

Жанр: Instrumental, Easy Listening
Издание: Polydor ‎– 533 506-2
Источник: Чех
Продолжительность: 01:07:18

Кодек: FLAC
Битрейт: Lossless
Тип рипа: tracks + .cue

Треклист:
01. Second Waltz
02. Der Verzauberte See
03. Scheherazade
04. Andante Variationen Nr.6
05. Capriccio Espangol
06. Lichtertanz
07. Chanson Triste
08. Eine Steppenskizze
09. Andante Cantabile
10. Second Concerto
11. Sarabande
12. Notturno
Код: Выделить всё
Exact Audio Copy V1.3 from 2. September 2016

EAC extraction logfile from 20. January 2018, 14:58

James Last / Classics From Russia

Used drive  : HL-DT-STDVD+-RW GU90N   Adapter: 1  ID: 0

Read mode               : Secure
Utilize accurate stream : Yes
Defeat audio cache      : Yes
Make use of C2 pointers : No

Read offset correction                      : 102
Overread into Lead-In and Lead-Out          : No
Fill up missing offset samples with silence : Yes
Delete leading and trailing silent blocks   : No
Null samples used in CRC calculations       : Yes
Used interface                              : Installed external ASPI interface
Gap handling                                : Appended to previous track

Used output format              : User Defined Encoder
Selected bitrate                : 768 kBit/s
Quality                         : High
Add ID3 tag                     : No
Command line compressor         : C:\Program Files (x86)\Exact Audio Copy\Flac\flac.exe
Additional command line options : -8 -V -T "ARTIST=%artist%" -T "TITLE=%title%" -T "ALBUM=%albumtitle%" -T "DATE=%year%" -T "TRACKNUMBER=%tracknr%" -T "GENRE=%genre%" -T "COMMENT=%comment%" -T "BAND=%albuminterpret%" -T "ALBUMARTIST=%albuminterpret%" -T "COMPOSER=%composer%" %haslyrics%--tag-from-file=LYRICS="%lyricsfile%"%haslyrics% -T "DISCNUMBER=%cdnumber%" -T "TOTALDISCS=%totalcds%" -T "TOTALTRACKS=%numtracks%" %hascover%--picture="%coverfile%"%hascover% %source% -o %dest%

TOC of the extracted CD

     Track |   Start  |  Length  | Start sector | End sector
    ---------------------------------------------------------
        1  |  0:00.00 |  3:49.37 |         0    |    17211
        2  |  3:49.37 |  8:38.63 |     17212    |    56124
        3  | 12:28.25 |  6:15.50 |     56125    |    84299
        4  | 18:44.00 |  5:30.62 |     84300    |   109111
        5  | 24:14.62 |  5:00.63 |    109112    |   131674
        6  | 29:15.50 |  3:54.12 |    131675    |   149236
        7  | 33:09.62 |  4:55.48 |    149237    |   171409
        8  | 38:05.35 |  6:17.52 |    171410    |   199736
        9  | 44:23.12 |  5:22.25 |    199737    |   223911
       10  | 49:45.37 |  8:08.00 |    223912    |   260511
       11  | 57:53.37 |  4:26.23 |    260512    |   280484
       12  | 62:19.60 |  4:59.15 |    280485    |   302924

Track  1

     Filename D:\Lietotājs\My Music\Flac\01. Second Waltz.wav

     Pre-gap length  0:00:02.00

     Peak level 96.6 %
     Extraction speed 1.4 X
     Track quality 100.0 %
     Test CRC CF8D401B
     Copy CRC CF8D401B
     Accurately ripped (confidence 3)  [F62B6158]  (AR v2)
     Copy OK

Track  2

     Filename D:\Lietotājs\My Music\Flac\02. Der verzauberte See.wav

     Pre-gap length  0:00:02.60

     Peak level 96.6 %
     Extraction speed 3.5 X
     Track quality 100.0 %
     Test CRC 0B605359
     Copy CRC 0B605359
     Accurately ripped (confidence 3)  [70D26464]  (AR v2)
     Copy OK

Track  3

     Filename D:\Lietotājs\My Music\Flac\03. Scheherazade.wav

     Pre-gap length  0:00:03.13

     Peak level 96.6 %
     Extraction speed 3.8 X
     Track quality 100.0 %
     Test CRC 50A7A60C
     Copy CRC 50A7A60C
     Accurately ripped (confidence 3)  [5F203647]  (AR v2)
     Copy OK

Track  4

     Filename D:\Lietotājs\My Music\Flac\04. Andante Variationen Nr.6.wav

     Pre-gap length  0:00:02.38

     Peak level 96.6 %
     Extraction speed 4.1 X
     Track quality 100.0 %
     Test CRC FD2CB3A8
     Copy CRC FD2CB3A8
     Accurately ripped (confidence 3)  [D4BCEC42]  (AR v2)
     Copy OK

Track  5

     Filename D:\Lietotājs\My Music\Flac\05. Capriccio Espagnol.wav

     Pre-gap length  0:00:02.37

     Peak level 96.6 %
     Extraction speed 4.3 X
     Track quality 100.0 %
     Test CRC 3184E69C
     Copy CRC 3184E69C
     Accurately ripped (confidence 3)  [959AFB68]  (AR v2)
     Copy OK

Track  6

     Filename D:\Lietotājs\My Music\Flac\06. Lichtertanz.wav

     Pre-gap length  0:00:02.38

     Peak level 96.6 %
     Extraction speed 4.4 X
     Track quality 100.0 %
     Test CRC D4EBCEC8
     Copy CRC D4EBCEC8
     Accurately ripped (confidence 3)  [C6FE55F3]  (AR v2)
     Copy OK

Track  7

     Filename D:\Lietotājs\My Music\Flac\07. Chanson Triste.wav

     Pre-gap length  0:00:02.62

     Peak level 96.6 %
     Extraction speed 4.7 X
     Track quality 100.0 %
     Test CRC 23C9DEC1
     Copy CRC 23C9DEC1
     Accurately ripped (confidence 3)  [F0B57336]  (AR v2)
     Copy OK

Track  8

     Filename D:\Lietotājs\My Music\Flac\08. Eine Steppenskizze.wav

     Pre-gap length  0:00:02.60

     Peak level 96.6 %
     Extraction speed 4.6 X
     Track quality 100.0 %
     Test CRC DEACA8C3
     Copy CRC DEACA8C3
     Accurately ripped (confidence 3)  [B08DA5F9]  (AR v2)
     Copy OK

Track  9

     Filename D:\Lietotājs\My Music\Flac\09. Andante Cantabile.wav

     Pre-gap length  0:00:02.62

     Peak level 95.6 %
     Extraction speed 4.1 X
     Track quality 99.9 %
     Test CRC B58D8F7E
     Copy CRC B58D8F7E
     Accurately ripped (confidence 3)  [27D57B3E]  (AR v2)
     Copy OK

Track 10

     Filename D:\Lietotājs\My Music\Flac\10. Second Concerto.wav

     Pre-gap length  0:00:02.62

     Peak level 96.6 %
     Extraction speed 4.7 X
     Track quality 99.9 %
     Test CRC 2A498975
     Copy CRC 2A498975
     Accurately ripped (confidence 3)  [45069B9F]  (AR v2)
     Copy OK

Track 11

     Filename D:\Lietotājs\My Music\Flac\11. Sarabande.wav

     Pre-gap length  0:00:03.17

     Peak level 86.8 %
     Extraction speed 5.1 X
     Track quality 100.0 %
     Test CRC 7441F49D
     Copy CRC 7441F49D
     Accurately ripped (confidence 3)  [5B141A2A]  (AR v2)
     Copy OK

Track 12

     Filename D:\Lietotājs\My Music\Flac\12. Notturno.wav

     Pre-gap length  0:00:02.50

     Peak level 96.6 %
     Extraction speed 4.4 X
     Track quality 100.0 %
     Test CRC 52EDFC3C
     Copy CRC 52EDFC3C
     Accurately ripped (confidence 4)  [7A71BFB1]  (AR v2)
     Copy OK

All tracks accurately ripped

No errors occurred

End of status report

---- CUETools DB Plugin V2.1.6

[CTDB TOCID: NKAlImm_lGUMgBgviRuTej6LWe4-] found
Submit result: NKAlImm_lGUMgBgviRuTej6LWe4- has been confirmed
Track | CTDB Status
  1   | (12/12) Accurately ripped
  2   | (12/12) Accurately ripped
  3   | (12/12) Accurately ripped
  4   | (12/12) Accurately ripped
  5   | (12/12) Accurately ripped
  6   | (12/12) Accurately ripped
  7   | (12/12) Accurately ripped
  8   | (12/12) Accurately ripped
  9   | (12/12) Accurately ripped
 10   | (12/12) Accurately ripped
 11   | (12/12) Accurately ripped
 12   | (12/12) Accurately ripped

==== Log checksum 6DC097B7A3F4A0407B176D5665D0273F178EDD4344D2B409FE04324E9E4F00AB ====
Код: Выделить всё
REM GENRE Instrumental
REM DATE 1996
REM DISCID B80FC70C
REM COMMENT "ExactAudioCopy v1.3"
PERFORMER "James Last"
TITLE "Classics From Russia"
REM COMPOSER ""
FILE "01. Second Waltz.wav" WAVE
  TRACK 01 AUDIO
    TITLE "Second Waltz"
    PERFORMER "James Last"
    REM COMPOSER ""
    INDEX 01 00:00:00
  TRACK 02 AUDIO
    TITLE "Der verzauberte See"
    PERFORMER "James Last"
    REM COMPOSER ""
    INDEX 00 03:46:52
FILE "02. Der verzauberte See.wav" WAVE
    INDEX 01 00:00:00
  TRACK 03 AUDIO
    TITLE "Scheherazade"
    PERFORMER "James Last"
    REM COMPOSER ""
    INDEX 00 08:35:50
FILE "03. Scheherazade.wav" WAVE
    INDEX 01 00:00:00
  TRACK 04 AUDIO
    TITLE "Andante Variationen Nr.6"
    PERFORMER "James Last"
    REM COMPOSER ""
    INDEX 00 06:13:12
FILE "04. Andante Variationen Nr.6.wav" WAVE
    INDEX 01 00:00:00
  TRACK 05 AUDIO
    TITLE "Capriccio Espagnol"
    PERFORMER "James Last"
    REM COMPOSER ""
    INDEX 00 05:28:25
FILE "05. Capriccio Espagnol.wav" WAVE
    INDEX 01 00:00:00
  TRACK 06 AUDIO
    TITLE "Lichtertanz"
    PERFORMER "James Last"
    REM COMPOSER ""
    INDEX 00 04:58:25
FILE "06. Lichtertanz.wav" WAVE
    INDEX 01 00:00:00
  TRACK 07 AUDIO
    TITLE "Chanson Triste"
    PERFORMER "James Last"
    REM COMPOSER ""
    INDEX 00 03:51:25
FILE "07. Chanson Triste.wav" WAVE
    INDEX 01 00:00:00
  TRACK 08 AUDIO
    TITLE "Eine Steppenskizze"
    PERFORMER "James Last"
    REM COMPOSER ""
    INDEX 00 04:52:63
FILE "08. Eine Steppenskizze.wav" WAVE
    INDEX 01 00:00:00
  TRACK 09 AUDIO
    TITLE "Andante Cantabile"
    PERFORMER "James Last"
    REM COMPOSER ""
    INDEX 00 06:14:65
FILE "09. Andante Cantabile.wav" WAVE
    INDEX 01 00:00:00
  TRACK 10 AUDIO
    TITLE "Second Concerto"
    PERFORMER "James Last"
    REM COMPOSER ""
    INDEX 00 05:19:38
FILE "10. Second Concerto.wav" WAVE
    INDEX 01 00:00:00
  TRACK 11 AUDIO
    TITLE "Sarabande"
    PERFORMER "James Last"
    REM COMPOSER ""
    INDEX 00 08:04:58
FILE "11. Sarabande.wav" WAVE
    INDEX 01 00:00:00
  TRACK 12 AUDIO
    TITLE "Notturno"
    PERFORMER "James Last"
    REM COMPOSER ""
    INDEX 00 04:23:48
FILE "12. Notturno.wav" WAVE
    INDEX 01 00:00:00
Код: Выделить всё
-----------------------

DON'T MODIFY THIS FILE

-----------------------

PERFORMER: auCDtect Task Manager, ver. 1.5.1RC4 build 1.5.1.5
Copyright (c) 2008-2010 y-soft. All rights reserved
[url=http://y-soft.org]http://y-soft.org[/url]

ANALYZER: auCDtect: CD records authenticity detector, version 0.8.2
Copyright (c) 2004 Oleg Berngardt. All rights reserved.
Copyright (c) 2004 Alexander Djourik. All rights reserved.

FILE: 12. Notturno.flac
  Size: 29619374 Hash: 19D694DA2008989DBF7415D78E1BA284 Accuracy: -m0
  Conclusion: CDDA 100%
  Signature: BC64582169B6B7332FA4B6244237CE59E6033529
FILE: 11. Sarabande.flac
  Size: 24480089 Hash: BB23095B65B9670590AB77DFB151EC77 Accuracy: -m0
  Conclusion: CDDA 100%
  Signature: 9AB177F2343BBDFBE81178F72E5303EF2B2E0C92
FILE: 10. Second Concerto.flac
  Size: 41583191 Hash: 9193D0932FA36CC6CF19A2E130E7CA5F Accuracy: -m0
  Conclusion: CDDA 100%
  Signature: C9B3C1A18817AA70372BFE811E886ED0B3C1736E
FILE: 09. Andante Cantabile.flac
  Size: 30846247 Hash: 0141F88AF2CC4EEA4328B1790B33BD80 Accuracy: -m0
  Conclusion: CDDA 100%
  Signature: E13A25EA4F51EE3BCD2CEA41ECE4494DBEAD2281
FILE: 08. Eine Steppenskizze.flac
  Size: 37126895 Hash: 8BB4439C18EE2B4075D00F33E2D8F64E Accuracy: -m0
  Conclusion: CDDA 99%
  Signature: 8EAD27B2ECD7ABD709D50FCF5165D4394BA53955
FILE: 07. Chanson Triste.flac
  Size: 29445615 Hash: 7C43F6B50CFD5D37E55AF024582B76E8 Accuracy: -m0
  Conclusion: CDDA 99%
  Signature: 1C5F7A8D20F5C154280637D1686362667EFE5340
FILE: 06. Lichtertanz.flac
  Size: 21706298 Hash: 304FADC178AFA73E6C33DA16DB45945D Accuracy: -m0
  Conclusion: CDDA 100%
  Signature: 0972D002C1F24F3395958905B435035FFB80F8D3
FILE: 05. Capriccio Espagnol.flac
  Size: 33782838 Hash: EA3E74DB2DEA29D88DEFE71D5EF31DC3 Accuracy: -m0
  Conclusion: CDDA 100%
  Signature: E573C51D64CAE1CEC61AA3B9EB1C4045EBB7FCB2
FILE: 04. Andante Variationen Nr.6.flac
  Size: 30249699 Hash: 597EA5A126650009C359A0769E5B0917 Accuracy: -m0
  Conclusion: CDDA 99%
  Signature: 563A202D5AA67A38A24D54C20D1F8D64368A0DDF
FILE: 03. Scheherazade.flac
  Size: 39131365 Hash: 31F3074D3C74806A5C5AA4CDA5F11DFD Accuracy: -m0
  Conclusion: CDDA 100%
  Signature: 5247682520C50F0A5A67D30E23FD36E96915B323
FILE: 02. Der verzauberte See.flac
  Size: 46313129 Hash: BD52780014833506755B265F3E5C8501 Accuracy: -m0
  Conclusion: CDDA 100%
  Signature: 5565130BEF41BEEBC0838B78FC319EA60E6CBC72
FILE: 01. Second Waltz.flac
  Size: 24154035 Hash: 4643F77FC1A1D0200995643815CC7DD8 Accuracy: -m0
  Conclusion: CDDA 100%
  Signature: 7BCCA884CB49063EA7A575A08AA63548F9455D8E
Время раздачи: с 8:30 до 23:00 (до появления первых 3-5 скачавших)
#7
Код: Выделить всё
[b]Поглощение/вытеснение [/b]
[b]Только с согласия релизера[/b]
[b][u][i]Чех[/b][/i][/u]
Не забывайте говорить Спасибо. Не уходите с раздачи!   
Торрент: Зарегистрирован [20 янв 2018, 16:09] Для скачивания .torrent
необходима регистрация
Или скачать с помощью
MediaGet
Статус:
Проверен
 
.torrent скачан: 2 раз
Размер: 377.54 МБ (395 880 508 байт)
   Стать Автором раздачи
   
Последний раз редактировалось Странник 16 сен 2018, 19:14, всего редактировалось 1 раз.
Цитата
Случайная аватара. Подставляется автоматически при отсутствии установленной пользователем аватары. Рекомендуется менять на свою или жить с Лоховской Аватаркой ))).
Раздал: 59.05 ГБ
Скачал: 15.39 ГБ
Ратио: 3.836
Сообщения: 5
Стаж: 2 месяца 11 дней
СообщениеДобавлено: 16 сен 2018, 18:52
James Last - Великий музыкант! Большое Вам спасибо!
Цитата
Аватара пользователя
Я на сайте
Автор темы
Раздал: 1.29 ТБ
Скачал: 9.74 ГБ
Ратио: 136.127
Сообщения: 136659
Стаж: 2 года 2 месяца 21 день
СообщениеДобавлено: 16 сен 2018, 19:16
Duran писал(а):

James Last - Великий музыкант!

Полностью с Вами согласен.
Цитата
Аватара пользователя
Главный редактор
Главный редактор
Я на сайте
Раздал: 48.39 ТБ
Скачал: 2.53 ТБ
Ратио: 19.571
Сообщения: 133702
Стаж: 7 лет 10 месяцев 29 дней
Откуда: Санкт-Петербург
СообщениеДобавлено: 16 сен 2018, 21:14
Я бы сказал - Величайший..... :)
Цитата

Вернуться в Classical

Кто сейчас на конференции

Сейчас эту тему просматривают: нет зарегистрированных пользователей и гости: 1