Юбилейный вечер Иосифа Кобзона 2017.09.24 [2017, Концерт, HDTV, 1080i]

 Статистика раздачи 
Размер: 18.32 ГБ   |  Зарегистрирован: 25 сен 2017, 07:09   |   .torrent скачан: 7 раз
Сидеров: 21  [ 0 байт/сек ]     Личеров: 19  [ 0 байт/сек ]  
  
Аватара пользователя
 
Раздал: 2.97 ТБ
Скачал: 11.01 ГБ
Ратио: 276.416
Сообщения: 182421
Стаж: 1 год 6 месяцев 1 день

Юбилейный вечер Иосифа Кобзона 2017.09.24
Жанр: Концерт
Продолжительность: 03:47:46
Год выпуска: 2017
Описание: Юбилейный концерт Иосифа Кобзона из Государственного Кремлевского Дворца, посвященный 80-летнему юбилею. Из своих 80-ти лет Иосиф Кобзон официально выступает на сцене почти 60. И это не считая участия в студенческой самодеятельности. За эти годы в его репертуаре появилось неправдоподобное количество песен — более 3000.
Треклист :
за составление спасибо iuk64
1. Идут белые снеги - Иосиф Кобзон
2. Песня о ротном запевале - Иосиф Кобзон
3. Дружба - Иосиф Кобзон и Анита Цой
4. Знаете, каким он парнем был - Иосиф Кобзон
5. Команда молодости нашей - Иосиф Кобзон и Лев Лещенко
6. Попурри (Мне доверена песня, Девчонки танцуют на палубе, А у нас во дворе, Прощание с Братском, Старинное танго) - Иосиф Кобзон
7. Не исчезай - Иосиф Кобзон и Тамара Гвердцители
8. Я люблю тебя, Россия - Иосиф Кобзон
9. Надежда - Иосиф Кобзон и Юлия Самойлова
10. Ретро - Иосиф Кобзон
11. Спят курганы темные - Иосиф Кобзон
12. Попурри (Русское поле, Встреча друзей, Старый марш, Легенды расскажу, И вновь продолжается бой) - Иосиф Кобзон
13. Поклонимся великим тем годам - Иосиф Кобзон и Александра Пахмутова
14. Мальчишки - Иосиф Кобзон и Александр Коган
15. Песенка фронтового шофера - Иосиф Кобзон и Лариса Долина
16. Смуглянка - Иосиф Кобзон и Николай Басков
17. Наш медсанбат - Иосиф Кобзон
18. День победы - Иосиф Кобзон и Лев Лещенко
19. Журавли - Иосиф Кобзон и Московский государственный академический камерный хор п/у Владимира Минина
20. Песня о далекой Родине - Иосиф Кобзон и Леонид Агутин
21. Попурри (Комсомол, Танго, Случайный вальс, Марш-воспоминание) - Иосиф Кобзон
22. Посвящение другу - Иосиф Кобзон и Александр Буйнов
23. А я еду за туманом - Иосиф Кобзон и группа Республика
24. Вечерняя застольная - Иосиф Кобзон, Александр Розенбаум и Григорий Лепс
25. Ридна мати моя - Иосиф Кобзон
26. Месяц на небе - Иосиф Кобзон и Александр Градский
27. Крымская весна - Иосиф Кобзон, Виктор Елисеев и Наталья Елисеева
28. Ноктюрн - Иосиф Кобзон и Валерия
29. Гастрольное танго - Иосиф Кобзон
30. Песня остается с человеком - Иосиф Кобзон и Елена Север
31. Главное, ребята сердцем не стареть - Иосиф Кобзон
32. Поздравление Владимира Путина
33. Что так сердце растревожено - Иосиф Кобзон и Зара
34. Распрягайте хлопцы коней - Иосиф Кобзон
35. Платье - Иосиф Кобзон и Надежда Бабкина
36. Частушки - Государственный академический русский народный хор имени Пятницкого М.Е.
37. Вдоль по Питерской - Иосиф Кобзон
38. Ехал из ярмарки ухарь-купец - Иосиф Кобзон
39. Прощай мой табор - Иосиф Кобзон
40. Хава Нагила - Иосиф Кобзон
41. Тум балалайка - Иосиф Кобзон и Хор Турецкого
42. Очи черные - Иосиф Кобзон
43. Песня о Тбилиси - Иосиф Кобзон и Валерий Меладзе
44. Запрещенная мелодия - Иосиф Кобзон
45. Москва - Иосиф Кобзон и Олег Газманов
46. Серенада жене - Иосиф Кобзон
47. Благодарю тебя - Иосиф Кобзон
48. Доченька - Иосиф Кобзон
49. Сыну - Иосиф Кобзон
50. Старый клен - Иосиф Кобзон, Мишель Раппопорт и Анита Кобзон
51. Мой путь - Иосиф Кобзон
52. Я люблю тебя, жизнь - Иосиф Кобзон
Качество: HDTV
Разрешение видео/развертка: 1080i
Контейнер: TS
Видео кодек: H.264
Аудио кодек: AC3
Видео: 1920x1080 (16:9) 25.000 fps ~ 10.4 Mb/s
Аудио 1: AC3, 6 channels, 48000Hz, 384 Кбит/сек
Аудио 2: MPEG Audio 48000Hz stereo 192 Кбит/сек
Код: Выделить всё
General
ID                             : 1 (0x1)
Complete name                  : F:\111---Смеяться разрешается\Юбилейный вечер Иосифа Кобзона 2017.09.24.ts
Format                         : MPEG-TS
File size                      : 18.3 GiB
Duration                       : 3 h 47 min
Overall bit rate mode          : Variable
Overall bit rate               : 11.5 Mb/s
Video
ID                             : 205 (0xCD)
Menu ID                        : 20105 (0x4E89)
Format                         : AVC
Format/Info                    : Advanced Video Codec
Format profile                 : High@L4
Format settings, CABAC         : Yes
Format settings, ReFrames      : 4 frames
Codec ID                       : 27
Duration                       : 3 h 47 min
Bit rate                       : 10.4 Mb/s
Width                          : 1 920 pixels
Height                         : 1 080 pixels
Display aspect ratio           : 16:9
Frame rate                     : 25.000 FPS
Standard                       : Component
Color space                    : YUV
Chroma subsampling             : 4:2:0
Bit depth                      : 8 bits
Scan type                      : Interlaced
Scan type, store method        : Separated fields
Scan order                     : Top Field First
Bits/(Pixel*Frame)             : 0.200
Stream size                    : 16.5 GiB (90%)
Color range                    : Limited
Color primaries                : BT.709
Transfer characteristics       : BT.709
Matrix coefficients            : BT.709
Audio #1
ID                             : 305 (0x131)
Menu ID                        : 20105 (0x4E89)
Format                         : AC-3
Format/Info                    : Audio Coding 3
Mode extension                 : CM (complete main)
Format settings, Endianness    : Big
Codec ID                       : 6
Duration                       : 3 h 47 min
Bit rate mode                  : Constant
Bit rate                       : 384 kb/s
Channel(s)                     : 6 channels
Channel positions              : Front: L C R, Side: L R, LFE
Sampling rate                  : 48.0 kHz
Frame rate                     : 31.250 FPS (1536 spf)
Bit depth                      : 16 bits
Compression mode               : Lossy
Stream size                    : 626 MiB (3%)
Language                       : Russian
Audio #2
ID                             : 306 (0x132)
Menu ID                        : 20105 (0x4E89)
Format                         : MPEG Audio
Format version                 : Version 1
Format profile                 : Layer 2
Codec ID                       : 3
Duration                       : 3 h 47 min
Bit rate mode                  : Constant
Bit rate                       : 192 kb/s
Channel(s)                     : 2 channels
Sampling rate                  : 48.0 kHz
Compression mode               : Lossy
Stream size                    : 313 MiB (2%)
Language                       : Russian


Не забывайте говорить Спасибо. Не уходите с раздачи!   
Торрент: Зарегистрирован [25 сен 2017, 07:09] Для скачивания .torrent
необходима регистрация
Или скачать с помощью
MediaGet
Статус:
Проверен
 
.torrent скачан: 7 раз
Размер: 18.32 ГБ (19 673 015 600 байт)
   Стать Автором раздачи
   
Цитата
Аватара пользователя
Автор темы
Раздал: 2.97 ТБ
Скачал: 11.01 ГБ
Ратио: 276.416
Сообщения: 182421
Стаж: 1 год 6 месяцев 1 день
СообщениеДобавлено: 30 авг 2018, 17:18
Юбилейный концерт
Цитата

Вернуться в Concert Recording

Кто сейчас на конференции

Сейчас эту тему просматривают: нет зарегистрированных пользователей и гости: 1