Я рядом с тобой!!! / Main Hoon Na (Фара Кхан / Farah Khan) [2004, Индия, мюзикл, боевик, драма, мелодрама, комедия, WEB-DL 1080p] MVO (Формат АВ [R5]) + Sub Eng + Original Hin

 Статистика раздачи 
Размер: 8.3 ГБ   |  Зарегистрирован: 24 июн 2018, 16:50   |   .torrent скачан: 0 раз
Сидеров: 3  [ 0 байт/сек ]     Личеров: 2  [ 0 байт/сек ]  
  
Аватара пользователя
Главный редактор
Главный редактор
Я на сайте
 
Раздал: 48.39 ТБ
Скачал: 2.53 ТБ
Ратио: 19.570
Сообщения: 133702
Стаж: 7 лет 10 месяцев 29 дней
Откуда: Санкт-Петербург

Я рядом с тобой!!!
Main Hoon Na
Страна: Индия
Студия: Red Chillies Entertainment, Venus Films
Жанр: мюзикл, боевик, драма, мелодрама, комедия
Год выпуска: 2004
Продолжительность: 02:51:00
Перевод: Профессиональный (многоголосый закадровый) Формат АВ [R5]
Субтитры: английские
Оригинальная аудиодорожка: хинди
Режиссер: Фара Кхан / Farah Khan
В ролях: Шах Рукх Кхан, Зайед Кхан, Амрита Рао, Сушмита Сен, Сунил Шетти, Кабир Беди, Насируддин Шах, Сатиш Шах, Боман Ирани, Бинду и др.
Описание: Рам Прасад мечтает об окончании давнишней вражды между двумя странами. Но есть силы, которые противостоят этому. Под угрозой жизнь Санчжны, дочери генерала. Чтобы защитить девушку, Рам появляется в ее школе под видом студента.


Тип релиза: WEB-DL 1080p
Контейнер: MKV
Видео: 1920x1080 (16:9), 25 fps, AVC, 6190 Mb/s, 0.119 bpp
Аудио 1: AC3; 384 Kbps; 5.1 ch; 48 khz; 16 bit [Русский] | MVO - [DVD R5]
Аудио 2: AC3; 384 Kbps; 5.1 ch; 48 khz; 16 bit [Хинди] | Original - [WEB-DL]
Формат субтитров: softsub (SRT)
Format : Matroska
Format version : Version 4 / Version 2
File size : 8.30 GiB
Duration : 2 h 51 min
Overall bit rate mode : Variable
Overall bit rate : 6 948 kb/s
Movie name : Main Hoon Na (2004) Hindi 1080p NF WEB-DL DD 5.1 =TeamSunny=
Encoded date : UTC 2018-06-23 21:26:45
Writing application : mkvmerge v13.0.0 ('The Juggler') 64bit
Writing library : libebml v1.3.4 + libmatroska v1.4.5
Cover : Yes
Attachments : Cover.png
Video
ID : 1
Format : AVC
Format/Info : Advanced Video Codec
Format profile : Main@L4
Format settings : CABAC / 3 Ref Frames
Format settings, CABAC : Yes
Format settings, ReFrames : 3 frames
Format settings, GOP : M=3, N=50
Codec ID : V_MPEG4/ISO/AVC
Duration : 2 h 51 min
Bit rate mode : Variable
Bit rate : 6 190 kb/s
Maximum bit rate : 9 285 kb/s
Width : 1 920 pixels
Height : 1 080 pixels
Display aspect ratio : 16:9
Frame rate mode : Constant
Frame rate : 25.000 FPS
Color space : YUV
Chroma subsampling : 4:2:0
Bit depth : 8 bits
Scan type : Progressive
Bits/(Pixel*Frame) : 0.119
Stream size : 7.38 GiB (89%)
Title : Main.Hoon.Na.2004.1080p.WEB-DL.AVC.AC3.5.1.Rus.Hin
Writing library : x264 core 148 r2715 7e75228
Encoding settings : cabac=1 / ref=3 / deblock=1:0:0 / analyse=0x1:0x111 / me=umh / subme=10 / psy=1 / psy_rd=1.00:0.00 / mixed_ref=1 / me_range=24 / chroma_me=1 / trellis=2 / 8x8dct=0 / cqm=0 / deadzone=21,11 / fast_pskip=1 / chroma_qp_offset=-2 / threads=8 / lookahead_threads=1 / sliced_threads=0 / nr=0 / decimate=1 / interlaced=0 / bluray_compat=0 / stitchable=1 / constrained_intra=0 / bframes=2 / b_pyramid=0 / b_adapt=2 / b_bias=0 / direct=3 / weightb=1 / open_gop=0 / weightp=2 / keyint=50 / keyint_min=26 / scenecut=0 / intra_refresh=0 / rc_lookahead=50 / rc=2pass / mbtree=1 / bitrate=6190 / ratetol=1.0 / qcomp=0.50 / qpmin=6 / qpmax=51 / qpstep=4 / cplxblur=20.0 / qblur=0.5 / vbv_maxrate=9285 / vbv_bufsize=12380 / nal_hrd=vbr / filler=0 / ip_ratio=1.40 / aq=1:1.00
Language : Hindi
Default : Yes
Forced : No
Audio #1
ID : 2
Format : AC-3
Format/Info : Audio Coding 3
Codec ID : A_AC3
Duration : 2 h 51 min
Bit rate mode : Constant
Bit rate : 384 kb/s
Channel(s) : 6 channels
Channel positions : Front: L C R, Side: L R, LFE
Sampling rate : 48.0 kHz
Frame rate : 31.250 FPS (1536 SPF)
Bit depth : 16 bits
Compression mode : Lossy
Stream size : 470 MiB (6%)
Title : AC3 5.1 CH @ 384K [MVO | DVD R5]
Language : Russian
Service kind : Complete Main
Default : Yes
Forced : No
Audio #2
ID : 3
Format : AC-3
Format/Info : Audio Coding 3
Codec ID : A_AC3
Duration : 2 h 51 min
Bit rate mode : Constant
Bit rate : 384 kb/s
Channel(s) : 6 channels
Channel positions : Front: L C R, Side: L R, LFE
Sampling rate : 48.0 kHz
Frame rate : 31.250 FPS (1536 SPF)
Bit depth : 16 bits
Compression mode : Lossy
Stream size : 470 MiB (6%)
Title : AC3 5.1 CH @ 384K [Original | WEB-DL]
Language : Hindi
Service kind : Complete Main
Default : No
Forced : No
Text
ID : 4
Format : UTF-8
Codec ID : S_TEXT/UTF8
Codec ID/Info : UTF-8 Plain Text
Duration : 2 h 47 min
Bit rate : 55 b/s
Count of elements : 2080
Stream size : 68.1 KiB (0%)
Language : English
Default : No
Forced : No


Не забывайте говорить Спасибо. Не уходите с раздачи!   
Торрент: Зарегистрирован [24 июн 2018, 16:50] Для скачивания .torrent
необходима регистрация
Или скачать с помощью
MediaGet
Статус:
Проверен
 
.torrent скачан: 0 раз
Размер: 8.3 ГБ (8 911 435 164 байт)
   Стать Автором раздачи
   
Цитата
  • Похожие торренты
    Ответы
    Просмотры
    Последнее сообщение

Вернуться в Индийское кино

Кто сейчас на конференции

Сейчас эту тему просматривают: нет зарегистрированных пользователей и гости: 1