(Chamber Pop) Lana Del Rey - Born to Die (Deluxe Edition) - 2012 ALAC, lossless

 Статистика раздачи 
Размер: 406.59 МБ   |  Зарегистрирован: 13 ноя 2013, 19:32   |   .torrent скачан: 4 раз
Сидеров: 40  [ 0 байт/сек ]     Личеров: 39  [ 0 байт/сек ]  
  
Аватара пользователя
Главный редактор
Главный редактор
Автор темы
Раздал: 10.09 ТБ
Скачал: 1.76 ТБ
Ратио: 6.147
Сообщения: 3344
Стаж: 6 лет 3 месяца 29 дней
Откуда: Санкт-Петербург

Lana Del Rey - Born to Die (Deluxe Edition)


Оригинальное название: Born to Die (Deluxe Edition)
Страна: US
Жанр: Chamber Pop
Дата выхода: 2012
Формат аудио: ALAC
Исполнитель: Lana Del Rey
Тип рипа: tracks
Битрэйт: lossless
Тексты: вшиты
Источник: what.cd
Продолжительность: 1:00:42
Трэклист: 4:46 | 01. Born to Die
5:00 | 02. Off to the Races
3:29 | 03. Blue Jeans (remastered)
4:42 | 04. Video Games (remastered)
3:43 | 05. Diet Mountain Dew
3:51 | 06. National Anthem
4:03 | 07. Dark Paradise
3:35 | 08. Radio
4:09 | 09. Carmen
3:52 | 10. Million Dollar Man
4:25 | 11. Summertime Sadness
3:58 | 12. This Is What Makes Us Girls
Deluxe Edition:
3:49 | 13. Without You
3:40 | 14. Lolita
3:47 | 15. Lucky Ones


Код: Выделить всё
X Lossless Decoder version 20120120 (139.0)
XLD extraction logfile from 2012-01-27 14:05:57 +0000
Lana Del Rey / Born To Die
Used drive : YAMAHA CRW-F1E (revision 1.0g)
Ripper mode             : XLD Secure Ripper
Disable audio cache     : OK for the drive with a cache less than 1375KiB
Make use of C2 pointers : NO
Read offset correction  : 733
Max retry count         : 100
Gap status              : Analyzed, Appended
TOC of the extracted CD
     Track |   Start  |  Length  | Start sector | End sector
    ---------------------------------------------------------
        1  | 00:00:00 | 04:46:19 |         0    |    21468
        2  | 04:46:19 | 04:59:70 |     21469    |    43963
        3  | 09:46:14 | 03:29:33 |     43964    |    59671
        4  | 13:15:47 | 04:41:71 |     59672    |    80817
        5  | 17:57:43 | 03:42:69 |     80818    |    97536
        6  | 21:40:37 | 03:50:40 |     97537    |   114826
        7  | 25:31:02 | 04:03:13 |    114827    |   133064
        8  | 29:34:15 | 03:34:44 |    133065    |   149158
        9  | 33:08:59 | 04:08:54 |    149159    |   167812
       10  | 37:17:38 | 03:51:42 |    167813    |   185179
       11  | 41:09:05 | 04:25:32 |    185180    |   205086
       12  | 45:34:37 | 03:58:32 |    205087    |   222968
       13  | 49:32:69 | 03:49:22 |    222969    |   240165
       14  | 53:22:16 | 03:40:03 |    240166    |   256668
       15  | 57:02:19 | 03:47:23 |    256669    |   273716
AccurateRip Summary
    Disc not found in AccurateRip DB.
All Tracks
    Album gain             : -9.55 dB
    Peak                   : 0.998871
    Statistics
        Read error                           : 0
        Jitter error (maybe fixed)           : 0
        Retry sector count                   : 0
        Damaged sector count                 : 0
Track 01
    Filename : /Volumes/HD 2/Lana Del Rey -2012- Born To Die DLX/01 - Lana Del Rey - 2012 - Born To Die.flac
    Pre-gap length : 00:02:00
    Track gain             : -9.20 dB
    Peak                   : 0.998871
    CRC32 hash (test run)  : 316DDC04
    CRC32 hash             : 316DDC04
    CRC32 hash (skip zero) : 1676CB2E
    AccurateRip signature  : 2A89E301
        ->Track not present in AccurateRip database.
    Statistics
        Read error                           : 0
        Jitter error (maybe fixed)           : 0
        Retry sector count                   : 0
        Damaged sector count                 : 0
Track 02
    Filename : /Volumes/HD 2/Lana Del Rey -2012- Born To Die DLX/02 - Lana Del Rey - 2012 - Off To The Races.flac
    Track gain             : -8.85 dB
    Peak                   : 0.998871
    CRC32 hash (test run)  : 13FFC7BA
    CRC32 hash             : 13FFC7BA
    CRC32 hash (skip zero) : 4B0BF72C
    AccurateRip signature  : E21994A0
        ->Track not present in AccurateRip database.
    Statistics
        Read error                           : 0
        Jitter error (maybe fixed)           : 0
        Retry sector count                   : 0
        Damaged sector count                 : 0
Track 03
    Filename : /Volumes/HD 2/Lana Del Rey -2012- Born To Die DLX/03 - Lana Del Rey - 2012 - Blue Jeans.flac
    Track gain             : -10.04 dB
    Peak                   : 0.998871
    CRC32 hash (test run)  : 96B7F3AB
    CRC32 hash             : 96B7F3AB
    CRC32 hash (skip zero) : 89B9CA47
    AccurateRip signature  : 520E6DDC
        ->Track not present in AccurateRip database.
    Statistics
        Read error                           : 0
        Jitter error (maybe fixed)           : 0
        Retry sector count                   : 0
        Damaged sector count                 : 0
Track 04
    Filename : /Volumes/HD 2/Lana Del Rey -2012- Born To Die DLX/04 - Lana Del Rey - 2012 - Video Games.flac
    Track gain             : -8.67 dB
    Peak                   : 0.998871
    CRC32 hash (test run)  : 44E7DD05
    CRC32 hash             : 44E7DD05
    CRC32 hash (skip zero) : CED03010
    AccurateRip signature  : 9B9E0F6B
        ->Track not present in AccurateRip database.
    Statistics
        Read error                           : 0
        Jitter error (maybe fixed)           : 0
        Retry sector count                   : 0
        Damaged sector count                 : 0
Track 05
    Filename : /Volumes/HD 2/Lana Del Rey -2012- Born To Die DLX/05 - Lana Del Rey - 2012 - Diet Mountain Dew.flac
    Track gain             : -9.72 dB
    Peak                   : 0.913422
    CRC32 hash (test run)  : F3FB8CCE
    CRC32 hash             : F3FB8CCE
    CRC32 hash (skip zero) : ACDBAC1A
    AccurateRip signature  : 157F7209
        ->Track not present in AccurateRip database.
    Statistics
        Read error                           : 0
        Jitter error (maybe fixed)           : 0
        Retry sector count                   : 0
        Damaged sector count                 : 0
Track 06
    Filename : /Volumes/HD 2/Lana Del Rey -2012- Born To Die DLX/06 - Lana Del Rey - 2012 - National Anthem.flac
    Track gain             : -10.76 dB
    Peak                   : 0.998871
    CRC32 hash (test run)  : 27CF56D6
    CRC32 hash             : 27CF56D6
    CRC32 hash (skip zero) : B6960B42
    AccurateRip signature  : 7F1A6374
        ->Track not present in AccurateRip database.
    Statistics
        Read error                           : 0
        Jitter error (maybe fixed)           : 0
        Retry sector count                   : 0
        Damaged sector count                 : 0
Track 07
    Filename : /Volumes/HD 2/Lana Del Rey -2012- Born To Die DLX/07 - Lana Del Rey - 2012 - Dark Paradise.flac
    Track gain             : -6.50 dB
    Peak                   : 0.956207
    CRC32 hash (test run)  : 338C5F76
    CRC32 hash             : 338C5F76
    CRC32 hash (skip zero) : AD358A43
    AccurateRip signature  : C0B11B9D
        ->Track not present in AccurateRip database.
    Statistics
        Read error                           : 0
        Jitter error (maybe fixed)           : 0
        Retry sector count                   : 0
        Damaged sector count                 : 0
Track 08
    Filename : /Volumes/HD 2/Lana Del Rey -2012- Born To Die DLX/08 - Lana Del Rey - 2012 - Radio.flac
    Track gain             : -10.14 dB
    Peak                   : 0.998871
    CRC32 hash (test run)  : BA25514B
    CRC32 hash             : BA25514B
    CRC32 hash (skip zero) : B207C264
    AccurateRip signature  : 702AFA99
        ->Track not present in AccurateRip database.
    Statistics
        Read error                           : 0
        Jitter error (maybe fixed)           : 0
        Retry sector count                   : 0
        Damaged sector count                 : 0
Track 09
    Filename : /Volumes/HD 2/Lana Del Rey -2012- Born To Die DLX/09 - Lana Del Rey - 2012 - Carmen.flac
    Track gain             : -7.15 dB
    Peak                   : 0.918579
    CRC32 hash (test run)  : 5367140D
    CRC32 hash             : 5367140D
    CRC32 hash (skip zero) : 6015501E
    AccurateRip signature  : 484F7806
        ->Track not present in AccurateRip database.
    Statistics
        Read error                           : 0
        Jitter error (maybe fixed)           : 0
        Retry sector count                   : 0
        Damaged sector count                 : 0
Track 10
    Filename : /Volumes/HD 2/Lana Del Rey -2012- Born To Die DLX/10 - Lana Del Rey - 2012 - Million Dollar Man.flac
    Track gain             : -10.14 dB
    Peak                   : 0.998871
    CRC32 hash (test run)  : 03227D0E
    CRC32 hash             : 03227D0E
    CRC32 hash (skip zero) : 1812D7F7
    AccurateRip signature  : 0F6CD8CF
        ->Track not present in AccurateRip database.
    Statistics
        Read error                           : 0
        Jitter error (maybe fixed)           : 0
        Retry sector count                   : 0
        Damaged sector count                 : 0
Track 11
    Filename : /Volumes/HD 2/Lana Del Rey -2012- Born To Die DLX/11 - Lana Del Rey - 2012 - Summertime Sadness.flac
    Track gain             : -8.78 dB
    Peak                   : 0.998871
    CRC32 hash (test run)  : A2B4BD1C
    CRC32 hash             : A2B4BD1C
    CRC32 hash (skip zero) : 960F67AE
    AccurateRip signature  : A9F8583F
        ->Track not present in AccurateRip database.
    Statistics
        Read error                           : 0
        Jitter error (maybe fixed)           : 0
        Retry sector count                   : 0
        Damaged sector count                 : 0
Track 12
    Filename : /Volumes/HD 2/Lana Del Rey -2012- Born To Die DLX/12 - Lana Del Rey - 2012 - This Is What Makes Us Girls.flac
    Track gain             : -8.38 dB
    Peak                   : 0.955688
    CRC32 hash (test run)  : ED72438E
    CRC32 hash             : ED72438E
    CRC32 hash (skip zero) : 7293EE6C
    AccurateRip signature  : 5A52E4A4
        ->Track not present in AccurateRip database.
    Statistics
        Read error                           : 0
        Jitter error (maybe fixed)           : 0
        Retry sector count                   : 0
        Damaged sector count                 : 0
Track 13
    Filename : /Volumes/HD 2/Lana Del Rey -2012- Born To Die DLX/13 - Lana Del Rey - 2012 - Without You.flac
    Track gain             : -8.19 dB
    Peak                   : 0.998871
    CRC32 hash (test run)  : 22D9BAC9
    CRC32 hash             : 22D9BAC9
    CRC32 hash (skip zero) : 8A5E0E2F
    AccurateRip signature  : 0F40496F
        ->Track not present in AccurateRip database.
    Statistics
        Read error                           : 0
        Jitter error (maybe fixed)           : 0
        Retry sector count                   : 0
        Damaged sector count                 : 0
Track 14
    Filename : /Volumes/HD 2/Lana Del Rey -2012- Born To Die DLX/14 - Lana Del Rey - 2012 - Lolita.flac
    Track gain             : -10.20 dB
    Peak                   : 0.998871
    CRC32 hash (test run)  : AA1B8B18
    CRC32 hash             : AA1B8B18
    CRC32 hash (skip zero) : FD73D5ED
    AccurateRip signature  : DE40CF23
        ->Track not present in AccurateRip database.
    Statistics
        Read error                           : 0
        Jitter error (maybe fixed)           : 0
        Retry sector count                   : 0
        Damaged sector count                 : 0
Track 15
    Filename : /Volumes/HD 2/Lana Del Rey -2012- Born To Die DLX/15 - Lana Del Rey - 2012 - Lucky Ones.flac
    Track gain             : -8.78 dB
    Peak                   : 0.870209
    CRC32 hash (test run)  : F9DC2C30
    CRC32 hash             : F9DC2C30
    CRC32 hash (skip zero) : 4C57978A
    AccurateRip signature  : 7F53D847
        ->Track not present in AccurateRip database.
    Statistics
        Read error                           : 0
        Jitter error (maybe fixed)           : 0
        Retry sector count                   : 0
        Damaged sector count                 : 0
No errors occurred
End of status report
   
Торрент: Зарегистрирован [13 ноя 2013, 19:32] Музыка lossless (iPod, iPhone, iPad) Скачать торрент Магнет ссылка
Скачать торрент
[ Размер 17.17 КБ / Просмотров 143 ]
Статус:
Проверен
 
.torrent скачан: 4 раз
Размер: 406.59 МБ (426 341 072 байт)
   
 
 
Цитата
  • Похожие торренты
    Ответы
    Просмотры
    Последнее сообщение

Вернуться в Музыка lossless (iPod, iPhone, iPad)

Кто сейчас на конференции

Сейчас эту тему просматривают: нет зарегистрированных пользователей и гости: 1